找回密码
 立即注册
搜索
热搜: 2023 高码

[115云盘]婚词离曲 第一季[2021][完结剧集][4K][韩语][内嵌简繁英字幕][92.95GB]

[复制链接]
lcw_008 发表于 2023-5-23 14:02:36 | 显示全部楼层 |阅读模式
◎译  名 婚词离曲 / 结婚作词 离婚作曲 / 结婚故事 / Love (ft. Marriage and Divorce) / Marriage Lyrics and Divorce Music / Love
◎片  名 결혼작사 이혼작곡
◎年  代 2021
◎产  地 韩国
◎类  别 爱情
◎语  言 韩语
◎上映日期 2021-01-23(韩国)
◎IMDb评分  6.8/10 from 562 users
◎IMDb链接  https://www.imdb.com/title/tt13814840/
◎豆瓣评分 6.7/10 from 2094 users
◎豆瓣链接   https://movie.douban.com/subject/35207847/
◎单集片长 约70分钟
◎集  数 16
◎演       员  成勋 / Sung Hoon
      李太坤 / Tae-gon Lee
      朴珠美 / Joo-mi Park
      李佳宁 / Ga-Ryung Lee
      李敏英 / Min-young Lee
      朴瑞京 / Seo Kyung Park
      宋智仁 / Ji-In Song | 饰 雅美
      林惠英 / Hye-young Lim | 饰 南佳彬
      文圣浩 / Moon Sung Ho | 饰 誓班
      全秀景 / Soo-kyung Chun
      金宝妍 / Bo-yeon Kim
      奇昭侑 / Gi So Yoo | 饰 餐厅小孩
      裴琉璃 / Bae Yuri
◎编       剧  任成汉 / Sung-han Im
◎制  片  人  郑熙锡 / Hoe-seok Jeong
◎音       乐  郑有智 / Jung Yu Ji
◎简  介 
  在广播电台共事的三名女子原本过著平凡稳定的生活,翻天覆地的改变却突然来袭。眼见她们的爱情及事业摇摇欲坠,幸福的婚姻难道只是幻觉?
  1. General
  2. Unique ID                      : 313599189552931166825505384163348466978 (0xEBED01C8C1BEA3BD63D3DFE8DB824D22)
  3. Complete name                  : 婚词离曲 第一季.mkv
  4. Format                         : Matroska
  5. Format version                 : Version 4
  6. File size                      : 6.27 GiB
  7. Duration                       : 1 h 13 min
  8. Overall bit rate               : 12.2 Mb/s
  9. Frame rate                     : 23.976 FPS
  10. Encoded date                   : 2023-02-05 05:52:52 UTC
  11. Writing application            : mkvmerge v71.1.0 ('Fortitude') 64-bit
  12. Writing library                : libebml v1.4.4 + libmatroska v1.7.1

  13. Video
  14. ID                             : 1
  15. Format                         : HEVC
  16. Format/Info                    : High Efficiency Video Coding
  17. Format profile                 : Main 10@L5@Main
  18. Codec ID                       : V_MPEGH/ISO/HEVC
  19. Duration                       : 1 h 13 min
  20. Bit rate                       : 12.0 Mb/s
  21. Width                          : 3 840 pixels
  22. Height                         : 2 160 pixels
  23. Display aspect ratio           : 16:9
  24. Frame rate mode                : Constant
  25. Frame rate                     : 23.976 (24000/1001) FPS
  26. Color space                    : YUV
  27. Chroma subsampling             : 4:2:0
  28. Bit depth                      : 10 bits
  29. Bits/(Pixel*Frame)             : 0.060
  30. Stream size                    : 6.20 GiB (99%)
  31. Language                       : Korean
  32. Default                        : Yes
  33. Forced                         : No
  34. Color range                    : Limited
  35. Color primaries                : BT.709
  36. Transfer characteristics       : BT.709
  37. Matrix coefficients            : BT.709

  38. Audio
  39. ID                             : 2
  40. Format                         : E-AC-3
  41. Format/Info                    : Enhanced AC-3
  42. Commercial name                : Dolby Digital Plus
  43. Codec ID                       : A_EAC3
  44. Duration                       : 1 h 13 min
  45. Bit rate mode                  : Constant
  46. Bit rate                       : 128 kb/s
  47. Channel(s)                     : 2 channels
  48. Channel layout                 : L R
  49. Sampling rate                  : 48.0 kHz
  50. Frame rate                     : 31.250 FPS (1536 SPF)
  51. Compression mode               : Lossy
  52. Stream size                    : 67.6 MiB (1%)
  53. Language                       : Korean
  54. Service kind                   : Complete Main
  55. Default                        : Yes
  56. Forced                         : No

  57. Text #1
  58. ID                             : 3
  59. Format                         : UTF-8
  60. Codec ID                       : S_TEXT/UTF8
  61. Codec ID/Info                  : UTF-8 Plain Text
  62. Duration                       : 2 s 752 ms
  63. Bit rate                       : 101 b/s
  64. Frame rate                     : 0.363 FPS
  65. Count of elements              : 1
  66. Stream size                    : 35.0 Bytes (0%)
  67. Title                          : Forced
  68. Language                       : Korean
  69. Default                        : Yes
  70. Forced                         : Yes

  71. Text #2
  72. ID                             : 4
  73. Format                         : UTF-8
  74. Codec ID                       : S_TEXT/UTF8
  75. Codec ID/Info                  : UTF-8 Plain Text
  76. Duration                       : 1 h 12 min
  77. Bit rate                       : 92 b/s
  78. Frame rate                     : 0.309 FPS
  79. Count of elements              : 1352
  80. Stream size                    : 49.2 KiB (0%)
  81. Title                          : SDH
  82. Language                       : Korean
  83. Default                        : No
  84. Forced                         : No

  85. Text #3
  86. ID                             : 5
  87. Format                         : UTF-8
  88. Codec ID                       : S_TEXT/UTF8
  89. Codec ID/Info                  : UTF-8 Plain Text
  90. Duration                       : 1 h 13 min
  91. Bit rate                       : 62 b/s
  92. Frame rate                     : 0.234 FPS
  93. Count of elements              : 1030
  94. Stream size                    : 33.4 KiB (0%)
  95. Title                          : Simplified
  96. Language                       : Chinese (Simplified)
  97. Default                        : No
  98. Forced                         : No

  99. Text #4
  100. ID                             : 6
  101. Format                         : UTF-8
  102. Codec ID                       : S_TEXT/UTF8
  103. Codec ID/Info                  : UTF-8 Plain Text
  104. Duration                       : 1 h 13 min
  105. Bit rate                       : 62 b/s
  106. Frame rate                     : 0.234 FPS
  107. Count of elements              : 1030
  108. Stream size                    : 33.8 KiB (0%)
  109. Title                          : Traditional
  110. Language                       : Chinese (Traditional)
  111. Default                        : No
  112. Forced                         : No

  113. Text #10
  114. ID                             : 12
  115. Format                         : UTF-8
  116. Codec ID                       : S_TEXT/UTF8
  117. Codec ID/Info                  : UTF-8 Plain Text
  118. Duration                       : 1 h 12 min
  119. Bit rate                       : 55 b/s
  120. Frame rate                     : 0.231 FPS
  121. Count of elements              : 1008
  122. Stream size                    : 29.8 KiB (0%)
  123. Language                       : English
  124. Default                        : No
  125. Forced                         : No

  126. Menu
  127. 01:13:33.000                   : en:End Credits
复制代码


购买主题 本主题需向作者支付 45 金币 才能浏览
顾扣林 发表于 2023-9-16 13:58:28 | 显示全部楼层
谢谢楼主分享
回复

使用道具 举报

nzaniubi 发表于 2023-5-27 15:48:23 | 显示全部楼层
感谢楼主分享
回复

使用道具 举报

ESXF 发表于 2023-5-26 12:12:47 | 显示全部楼层
谢谢楼主分享
回复

使用道具 举报

ESXF 发表于 2023-5-25 01:42:58 | 显示全部楼层
谢谢楼主分享
回复

使用道具 举报

dqxa 发表于 2023-5-25 01:39:14 | 显示全部楼层
谢谢楼主分享
回复

使用道具 举报

行者47 发表于 2023-5-25 00:24:28 | 显示全部楼层
谢谢分享 666666666
回复

使用道具 举报

难得吃亏 发表于 2023-5-24 15:16:14 | 显示全部楼层
谢谢楼主分享
回复

使用道具 举报

hwm54803 发表于 2023-5-24 06:01:38 | 显示全部楼层
谢谢楼主分享
回复

使用道具 举报

雨辰760501 发表于 2023-5-23 18:56:54 | 显示全部楼层
谢谢楼主分享
回复

使用道具 举报

您需要登录后才可以回帖 登录 | 立即注册

本版积分规则

QQ|Archiver|手机版|小黑屋|聚音影社区

GMT+8, 2024-6-17 12:33 , Processed in 0.092105 second(s), 18 queries .

Powered by Discuz! X3.5

© 2001-2024 Discuz! Team.

快速回复 返回顶部 返回列表