找回密码
 立即注册
搜索
热搜: 2023 高码

[115云盘]婚词离曲 第三季[2022][完结剧集][4K][韩语][内嵌简繁英字幕][92.58GB]

[复制链接]
lcw_008 发表于 2023-5-23 15:32:58 | 显示全部楼层 |阅读模式
◎译  名 婚词离曲 第三季 / 结婚作词 离婚作曲 3 / Love (ft. Marriage & Divorce) III
◎片  名 결혼작사 이혼작곡 시즌 3
◎年  代 2022
◎产  地 韩国
◎语  言 韩语
◎上映日期 2022-02-26(韩国)
◎豆瓣评分 5.1/10 from 661 users
◎豆瓣链接   https://movie.douban.com/subject/35623642/
◎单集片长 约70分钟
◎集  数 16
◎导  演 吴尚元 Sang Won Oh
◎编  剧 任成汉 Sung-han Im
◎主  演 朴珠美 Joo-mi Park
      李佳宁 Ga-Ryung Lee
      李敏英 Min-young Lee
      全秀景 Soo-kyung Chun
      全卢民 No-Min Jeon
      文圣浩 Moon Sung Ho
      姜新孝 Shin-hyo Kang
      金庆南 Kim Kyung Nam
      池英山 Ji Young-san
      宋智仁 Ji-In Song
      林惠英 Hye-young Lim
      裴琉璃 Bae Yuri
◎简  介 
  该剧讲述一路顺畅的30代,40代,50代的三名女主人公遭遇了无法想象的不幸,关于寻找真实爱情的夫妇们的不谐和音的故事。
  由《波赛冬》吴尚元导演执导,《人鱼小姐》《新妓生传》《欧若拉公主》《狎鸥亭白夜》任成汉编剧执笔。
  1. General
  2. Unique ID                      : 151567744387200745550709591876538709330 (0x7206E2C0A22D6F57EDFD10F4590FB552)
  3. Complete name                  : 婚词离曲 第三季.mkv
  4. Format                         : Matroska
  5. Format version                 : Version 4
  6. File size                      : 5.99 GiB
  7. Duration                       : 1 h 10 min
  8. Overall bit rate               : 12.2 Mb/s
  9. Frame rate                     : 23.976 FPS
  10. Encoded date                   : 2023-02-05 07:50:15 UTC
  11. Writing application            : mkvmerge v71.1.0 ('Fortitude') 64-bit
  12. Writing library                : libebml v1.4.4 + libmatroska v1.7.1

  13. Video
  14. ID                             : 1
  15. Format                         : HEVC
  16. Format/Info                    : High Efficiency Video Coding
  17. Format profile                 : Main 10@L5@Main
  18. Codec ID                       : V_MPEGH/ISO/HEVC
  19. Duration                       : 1 h 10 min
  20. Bit rate                       : 12.1 Mb/s
  21. Width                          : 3 840 pixels
  22. Height                         : 2 160 pixels
  23. Display aspect ratio           : 16:9
  24. Frame rate mode                : Constant
  25. Frame rate                     : 23.976 (24000/1001) FPS
  26. Color space                    : YUV
  27. Chroma subsampling             : 4:2:0
  28. Bit depth                      : 10 bits
  29. Bits/(Pixel*Frame)             : 0.061
  30. Stream size                    : 5.93 GiB (99%)
  31. Language                       : Korean
  32. Default                        : Yes
  33. Forced                         : No
  34. Color range                    : Limited
  35. Color primaries                : BT.709
  36. Transfer characteristics       : BT.709
  37. Matrix coefficients            : BT.709

  38. Audio
  39. ID                             : 2
  40. Format                         : E-AC-3
  41. Format/Info                    : Enhanced AC-3
  42. Commercial name                : Dolby Digital Plus
  43. Codec ID                       : A_EAC3
  44. Duration                       : 1 h 10 min
  45. Bit rate mode                  : Constant
  46. Bit rate                       : 128 kb/s
  47. Channel(s)                     : 2 channels
  48. Channel layout                 : L R
  49. Sampling rate                  : 48.0 kHz
  50. Frame rate                     : 31.250 FPS (1536 SPF)
  51. Compression mode               : Lossy
  52. Stream size                    : 64.3 MiB (1%)
  53. Language                       : Korean
  54. Service kind                   : Complete Main
  55. Default                        : Yes
  56. Forced                         : No

  57. Text #1
  58. ID                             : 3
  59. Format                         : UTF-8
  60. Codec ID                       : S_TEXT/UTF8
  61. Codec ID/Info                  : UTF-8 Plain Text
  62. Duration                       : 14 min 30 s
  63. Bit rate                       : 0 b/s
  64. Frame rate                     : 0.002 FPS
  65. Count of elements              : 2
  66. Stream size                    : 31.0 Bytes (0%)
  67. Title                          : Forced
  68. Language                       : Korean
  69. Default                        : Yes
  70. Forced                         : Yes

  71. Text #2
  72. ID                             : 4
  73. Format                         : UTF-8
  74. Codec ID                       : S_TEXT/UTF8
  75. Codec ID/Info                  : UTF-8 Plain Text
  76. Duration                       : 1 h 10 min
  77. Bit rate                       : 77 b/s
  78. Frame rate                     : 0.320 FPS
  79. Count of elements              : 1346
  80. Stream size                    : 39.8 KiB (0%)
  81. Title                          : SDH
  82. Language                       : Korean
  83. Default                        : No
  84. Forced                         : No

  85. Text #3
  86. ID                             : 5
  87. Format                         : UTF-8
  88. Codec ID                       : S_TEXT/UTF8
  89. Codec ID/Info                  : UTF-8 Plain Text
  90. Duration                       : 1 h 9 min
  91. Bit rate                       : 59 b/s
  92. Frame rate                     : 0.248 FPS
  93. Count of elements              : 1032
  94. Stream size                    : 30.3 KiB (0%)
  95. Title                          : Simplified
  96. Language                       : Chinese (Simplified)
  97. Default                        : No
  98. Forced                         : No

  99. Text #4
  100. ID                             : 6
  101. Format                         : UTF-8
  102. Codec ID                       : S_TEXT/UTF8
  103. Codec ID/Info                  : UTF-8 Plain Text
  104. Duration                       : 1 h 9 min
  105. Bit rate                       : 60 b/s
  106. Frame rate                     : 0.248 FPS
  107. Count of elements              : 1032
  108. Stream size                    : 30.7 KiB (0%)
  109. Title                          : Traditional
  110. Language                       : Chinese (Traditional)
  111. Default                        : No
  112. Forced                         : No

  113. Text #7
  114. ID                             : 9
  115. Format                         : UTF-8
  116. Codec ID                       : S_TEXT/UTF8
  117. Codec ID/Info                  : UTF-8 Plain Text
  118. Duration                       : 1 h 9 min
  119. Bit rate                       : 62 b/s
  120. Frame rate                     : 0.247 FPS
  121. Count of elements              : 1027
  122. Stream size                    : 31.6 KiB (0%)
  123. Language                       : English
  124. Default                        : No
  125. Forced                         : No

  126. Menu
  127. 00:00:00.020                   : en:Opening Credits
  128. 00:00:45.024                   : en:Chapter 01
  129. 01:10:12.000                   : en:End Credits
复制代码


购买主题 已有 1 人购买  本主题需向作者支付 45 金币 才能浏览
顾扣林 发表于 2023-9-16 13:35:01 | 显示全部楼层
谢谢楼主分享
回复

使用道具 举报

leipotoufeng 发表于 2023-6-2 16:29:03 | 显示全部楼层
谢谢楼主分享
回复

使用道具 举报

nzaniubi 发表于 2023-5-27 15:42:05 | 显示全部楼层
感谢楼主分享
回复

使用道具 举报

ESXF 发表于 2023-5-26 00:48:38 | 显示全部楼层
谢谢楼主分享
回复

使用道具 举报

ESXF 发表于 2023-5-25 18:31:53 | 显示全部楼层
谢谢楼主分享
回复

使用道具 举报

dqxa 发表于 2023-5-25 01:33:57 | 显示全部楼层
谢谢楼主分享
回复

使用道具 举报

小mi 发表于 2023-5-24 14:54:33 | 显示全部楼层
谢谢楼主分享
回复

使用道具 举报

hwm54803 发表于 2023-5-24 05:55:52 | 显示全部楼层
谢谢楼主分享
回复

使用道具 举报

雨辰760501 发表于 2023-5-23 18:49:40 | 显示全部楼层
谢谢楼主分享
回复

使用道具 举报

您需要登录后才可以回帖 登录 | 立即注册

本版积分规则

QQ|Archiver|手机版|小黑屋|聚音影社区

GMT+8, 2024-3-1 18:43 , Processed in 0.070048 second(s), 18 queries .

Powered by Discuz! X3.5

© 2001-2024 Discuz! Team.

快速回复 返回顶部 返回列表