找回密码
 立即注册
搜索
热搜: 2023 高码

[115云盘]现在正在分手中[2021][完结剧集][4K][韩语][中文字幕][17.27GB]

  [复制链接]
lcw_008 发表于 2023-5-23 15:41:06 | 显示全部楼层 |阅读模式
◎译  名 现在正在分手中 / 现正分手中(台) / 现在,正在分手 / Now, We Are Breaking Up
◎片  名 지금, 헤어지는 중입니다
◎年  代 2021
◎产  地 韩国
◎类  别 剧情
◎语  言 韩语
◎上映日期 2021-11-12(韩国)
◎IMDb链接  https://www.imdb.com/title/tt14408016/
◎豆瓣评分 6.3/10 from 13427 users
◎豆瓣链接   https://movie.douban.com/subject/35131286/
◎单集片长 60分钟
◎集  数 16
◎导       演  李吉福 / Lee Gil-Bok
◎演       员  宋慧乔 / Hye-kyo Song
      张基龙 / Jang Ki-yong
      吴世勋 / Se-Hun Oh
      崔嬉序 / Moon Choi
      金周宪 / Joo-Heon Kim
      金亚荣 / YURA
      何英 / Shin Ha Young | 饰 鄭昭英25
      张赫镇 / Jang Hyeok-jin
      朴宝庆 / Park Bo Kyung | 饰 崔智妍
      卢夏妍 / Noh Ha Yeon | 饰 郭智敏
      尹晶喜 / Yoon Jung Hee | 饰 申有静
◎编       剧  诸仁 / Je In
◎音       乐  李茂珍 / Lee Mu-jin
◎简  介 
  该剧是通过写“离别”,呈现出既是离别又可以理解为是爱的夹杂着酸甜苦辣的离别故事。
  1. General
  2. Complete name                  : 临时存放文件夹\现在正在分手中.mp4
  3. Format                         : MPEG-4
  4. Format profile                 : Base Media
  5. Codec ID                       : isom (isom/iso2/mp41)
  6. File size                      : 1.38 GiB
  7. Duration                       : 1 h 2 min
  8. Overall bit rate               : 3 150 kb/s
  9. Frame rate                     : 29.970 FPS
  10. Recorded date                  : 2022-03-09 18:00:31.3097906+08:00
  11. Writing application            : Lavf58.32.104

  12. Video
  13. ID                             : 1
  14. Format                         : HEVC
  15. Format/Info                    : High Efficiency Video Coding
  16. Format profile                 : Main 10@L5@Main
  17. Codec ID                       : hev1
  18. Codec ID/Info                  : High Efficiency Video Coding
  19. Duration                       : 1 h 2 min
  20. Bit rate                       : 3 015 kb/s
  21. Width                          : 3 840 pixels
  22. Height                         : 1 920 pixels
  23. Display aspect ratio           : 2.000
  24. Frame rate mode                : Variable
  25. Frame rate                     : 29.970 (29970/1000) FPS
  26. Minimum frame rate             : 29.960 FPS
  27. Maximum frame rate             : 29.970 FPS
  28. Color space                    : YUV
  29. Chroma subsampling             : 4:2:0
  30. Bit depth                      : 10 bits
  31. Bits/(Pixel*Frame)             : 0.014
  32. Stream size                    : 1.32 GiB (96%)
  33. Color range                    : Limited
  34. Color primaries                : BT.709
  35. Transfer characteristics       : BT.709
  36. Matrix coefficients            : BT.709
  37. Codec configuration box        : hvcC

  38. Audio
  39. ID                             : 2
  40. Format                         : AAC LC
  41. Format/Info                    : Advanced Audio Codec Low Complexity
  42. Codec ID                       : mp4a-40-2
  43. Duration                       : 1 h 2 min
  44. Bit rate mode                  : Constant
  45. Bit rate                       : 126 kb/s
  46. Channel(s)                     : 2 channels
  47. Channel layout                 : L R
  48. Sampling rate                  : 44.1 kHz
  49. Frame rate                     : 43.066 FPS (1024 SPF)
  50. Compression mode               : Lossy
  51. Stream size                    : 56.4 MiB (4%)
  52. Default                        : Yes
  53. Alternate group                : 1
复制代码


购买主题 本主题需向作者支付 15 金币 才能浏览
顾扣林 发表于 2023-9-16 13:39:49 | 显示全部楼层
谢谢楼主分享
回复

使用道具 举报

nzaniubi 发表于 2023-5-27 15:38:44 | 显示全部楼层
感谢楼主分享
回复

使用道具 举报

ESXF 发表于 2023-5-27 00:58:24 | 显示全部楼层
谢谢楼主分享
回复

使用道具 举报

雨辰760501 发表于 2023-5-25 18:21:22 | 显示全部楼层
慧乔姐的剧,谢谢分享
回复

使用道具 举报

dqxa 发表于 2023-5-25 01:31:05 | 显示全部楼层
谢谢楼主分享
回复

使用道具 举报

414562085 发表于 2023-5-24 14:38:47 | 显示全部楼层
谢谢楼主分享
回复

使用道具 举报

难得吃亏 发表于 2023-5-24 14:38:12 | 显示全部楼层
谢谢楼主分享
回复

使用道具 举报

v3344560 发表于 2023-5-24 13:08:27 | 显示全部楼层
谢谢楼主分享
回复

使用道具 举报

414562085 发表于 2023-5-24 08:52:50 | 显示全部楼层
谢谢楼主分享
回复

使用道具 举报

您需要登录后才可以回帖 登录 | 立即注册

本版积分规则

QQ|Archiver|手机版|小黑屋|聚音影社区

GMT+8, 2024-4-21 07:35 , Processed in 0.083462 second(s), 18 queries .

Powered by Discuz! X3.5

© 2001-2024 Discuz! Team.

快速回复 返回顶部 返回列表