找回密码
 立即注册
搜索
热搜: 2023 高码

[115云盘]弹子球游戏 第一季[2022][完结剧集][4KHDR+DV][韩语][内嵌简繁英字幕][154.51GB]

[复制链接]
lcw_008 发表于 2023-5-24 19:11:29 | 显示全部楼层 |阅读模式
◎译  名 弹子球游戏 第一季 / 弹珠人生(港) / 柏青哥
◎片  名 Pachinko Season 1
◎年  代 2022
◎产  地 美国
◎类  别 剧情
◎语  言 英语 / 韩语 / 日语
◎上映日期 2022-03-25(美国)
◎IMDb评分  8.3/10 from 9973 users
◎IMDb链接  https://www.imdb.com/title/tt8888462/
◎豆瓣评分 8.3/10 from 14910 users
◎豆瓣链接   https://movie.douban.com/subject/30489824/
◎单集片长 55分钟
◎集  数 8
◎导       演  郭共达 / Kogonada
      全知泰 / Justin Chon
◎演       员  尹汝贞 / Yeo-jeong Yoon | 饰 老年善慈 Older Sunja
      金敏荷 / MinhaKim | 饰 少女善慈 Sunja
      李敏镐 / Min-ho Lee | 饰 高汉水 Hansu
      河镇 / Jin Ha | 饰 白所罗门 Solomon
      朴秀熙 / Sohee Park | 饰 白摩西 Mozasu
      卢尚贤 / Steve Noh | 饰 白以撒 Isak
      郑恩彩 / Eun-Chae Jeong | 饰 景喜 Young Kyunghee
      韩俊宇 / Joon Woo Han | 饰 白约瑟 Baek Yoseb
      全俞娜 / Yu-na Jeon | 饰 童年善慈 Young Sunja
      朴载俊 / Park Jae Joon | 饰 白挪亚 Noa
      郑仁知 / Inji Jeong | 饰 养真 Yangin
      李大浩 / Dae Ho Lee | 饰 金勋二 Sunja's Father
      泽井杏奈 / Anna Sawai | 饰 娜奥美 Naomi
      吉米·辛普森 / Jimmi Simpson | 饰 汤姆·安德鲁斯 Tom Andrews
      南果步 / Kaho Minami | 饰 悦子 Etsuko
      武田裕光 / Hiromitsu Takeda | 饰 户户山春树 Totoyama Haruki
      菲利斯·崔 / Felice Choi | 饰 老年景喜 Older Kyunghee
      玛丽·亚马莫托 / Mari Yamamoto | 饰 小花 Hana
      朴惠珍 / Hye-jin Park | 饰 韩金慈 Han Geum-ja
      郑雄仁 / Woong-in Jeong | 饰 高宗律 Koh Jong-yul
      原口依子 / Yoriko Haraguchi  | 饰 Hansu's Wife
      延礼智 / Yeji Yeon | 饰 申福熙 Bokhee
      金宝敏 / Bomin Kim | 饰 申东熙 Donghee
      郑礼彬 / Yebin Jung | 饰 少女小花 Teenage Hana
      路易斯·小泽·张简 / Louis Ozawa Changchien | 饰 吉井守 Mamoru Yoshii
      郑素利 / So-ri Jung | 饰 智允 Jiyun
      美秀铃木 / Miho Suzuki | 饰 Japanese Lower Girl
      凯丽·科纳佩 / Kerry Knuppe | 饰 Mrs. Holmes
      吉米·本内特 / Jimmy Bennett | 饰 Andrew Holmes
      鲍勃·弗雷泽 / Bob Frazer | 饰 Mr. Holmes
      玄理 / Hyunri | 饰 Kiyo
      Rintaro Sawamoto Rintaro Sawamoto | 饰 Lone Mob Member
      金英玉 / Young-ok Kim | 饰 老年申福熙 Older Bokhee
      马丁·马丁内兹 / Martin Martinez | 饰 安杰洛 Angelo
      玛德琳·格蕾丝 / Madelyn Grace | 饰 Margie
      顺子 / 贝莉 Junko Bailey | 饰 Landowner's Daughter
      肖恩·科恩克 / Sean Kohnke | 饰 Stunts
      金昇华 / Seung Hwa Kim
◎编       剧  许秀珍 / Soo Hugh
      马修·J·麦库 / Matthew J. McCue
      郑韩帅 / Hansol Jung
      高恩智 / E.J. Koh
      卢振浩 / Franklin jin Rho
      余秀菊 / Lauren Yee
      伊森·库珀伯格 / Ethan Kuperberg
      安芙妮索·乌多菲亚 / Mfoniso Udofia
      李珉真 / Min Jin Lee
◎制  片  人  许秀珍 / Soo Hugh
      郭共达 / Kogonada
      全知泰 / Justin Chon
◎音       乐  尼可·穆利 / Nico Muhly
◎摄       影  弗洛里安·霍夫梅斯特尔 / Florian Hoffmeister
      安特·程 / Ante Cheng
◎简  介 
  剧讲述了历经四代的韩国移民家庭的故事。故事始于一段禁忌的爱恋,并扩展为跨越韩国、日本与美国三地,关于希望与梦想、和平、爱与失落、胜利与算计的史诗传奇。
  从朝鲜到日本,四代移民家庭的恩怨纠葛,大时代的巨光照在每一个小人物的身上,都留下了一道崎岖的阴影,生生地拖着他们的躯体前行。从1920年日本殖民时期的韩国渔村,到日本大阪,经历了二战和朝鲜战争,一直到90年代末日本泡沫经济时代的横滨和东京乃至纽约。在这样复杂的历史背景下,全剧着重描绘了几代人在家族与故乡、融入与归属、金钱与信仰等一系列问题上的关系与矛盾。
◎获奖情况 
       第32届哥谭独立电影奖 (2022)
  最佳突破剧集
  最佳新剧演出(提名) 金敏荷
  1. General
  2. Unique ID                      : 218940189700140058577446716620501130509 (0xA4B658C3C71DEF26C94A52EEACDF9D0D)
  3. Complete name                  : 弹子球游戏 第一季.mkv
  4. Format                         : Matroska
  5. Format version                 : Version 4
  6. File size                      : 9.46 GiB
  7. Duration                       : 54 min 36 s
  8. Overall bit rate               : 24.8 Mb/s
  9. Frame rate                     : 23.976 FPS
  10. Writing application            : mkvmerge v49.0.0 ('Sick Of Losing Soulmates') 64-bit
  11. Writing library                : libebml v1.4.0 + libmatroska v1.6.1

  12. Video
  13. ID                             : 1
  14. Format                         : HEVC
  15. Format/Info                    : High Efficiency Video Coding
  16. Format profile                 : Main 10@L5@High
  17. HDR format                     : SMPTE ST 2086, HDR10 compatible
  18. Codec ID                       : V_MPEGH/ISO/HEVC
  19. Duration                       : 54 min 36 s
  20. Bit rate                       : 23.6 Mb/s
  21. Width                          : 3 840 pixels
  22. Height                         : 1 746 pixels
  23. Display aspect ratio           : 2.2:1
  24. Frame rate mode                : Constant
  25. Frame rate                     : 23.976 (24000/1001) FPS
  26. Color space                    : YUV
  27. Chroma subsampling             : 4:2:0 (Type 2)
  28. Bit depth                      : 10 bits
  29. Bits/(Pixel*Frame)             : 0.147
  30. Stream size                    : 8.98 GiB (95%)
  31. Language                       : English
  32. Default                        : Yes
  33. Forced                         : No
  34. Color range                    : Limited
  35. Color primaries                : BT.2020
  36. Transfer characteristics       : PQ
  37. Matrix coefficients            : BT.2020 non-constant
  38. Mastering display color primar : Display P3
  39. Mastering display luminance    : min: 0.0050 cd/m2, max: 1000 cd/m2
  40. Maximum Content Light Level    : 382 cd/m2
  41. Maximum Frame-Average Light Le : 128 cd/m2

  42. Audio
  43. ID                             : 2
  44. Format                         : E-AC-3 JOC
  45. Format/Info                    : Enhanced AC-3 with Joint Object Coding
  46. Commercial name                : Dolby Digital Plus with Dolby Atmos
  47. Codec ID                       : A_EAC3
  48. Duration                       : 54 min 36 s
  49. Bit rate mode                  : Constant
  50. Bit rate                       : 768 kb/s
  51. Channel(s)                     : 6 channels
  52. Channel layout                 : L R C LFE Ls Rs
  53. Sampling rate                  : 48.0 kHz
  54. Frame rate                     : 31.250 FPS (1536 SPF)
  55. Compression mode               : Lossy
  56. Stream size                    : 300 MiB (3%)
  57. Language                       : Korean
  58. Service kind                   : Complete Main
  59. Default                        : Yes
  60. Forced                         : No
  61. Complexity index               : 16
  62. Number of dynamic objects      : 15
  63. Bed channel count              : 1 channel
  64. Bed channel configuration      : LFE

  65. Text #1
  66. ID                             : 3
  67. Format                         : UTF-8
  68. Codec ID                       : S_TEXT/UTF8
  69. Codec ID/Info                  : UTF-8 Plain Text
  70. Title                          : English
  71. Language                       : English
  72. Default                        : Yes
  73. Forced                         : Yes

  74. Text #4
  75. ID                             : 6
  76. Format                         : UTF-8
  77. Codec ID                       : S_TEXT/UTF8
  78. Codec ID/Info                  : UTF-8 Plain Text
  79. Title                          : Chinese Simplified
  80. Language                       : Chinese
  81. Default                        : No
  82. Forced                         : No

  83. Text #5
  84. ID                             : 7
  85. Format                         : UTF-8
  86. Codec ID                       : S_TEXT/UTF8
  87. Codec ID/Info                  : UTF-8 Plain Text
  88. Title                          : Chinese Traditional
  89. Language                       : Chinese
  90. Default                        : No
  91. Forced                         : No

  92. Text #6
  93. ID                             : 8
  94. Format                         : UTF-8
  95. Codec ID                       : S_TEXT/UTF8
  96. Codec ID/Info                  : UTF-8 Plain Text
  97. Title                          : Chinese Yue
  98. Language                       : Chinese
  99. Default                        : No
  100. Forced                         : No

  101. Text #24
  102. ID                             : 26
  103. Format                         : UTF-8
  104. Codec ID                       : S_TEXT/UTF8
  105. Codec ID/Info                  : UTF-8 Plain Text
  106. Title                          : Korean
  107. Language                       : Korean
  108. Default                        : No
  109. Forced                         : No

  110. Text #25
  111. ID                             : 27
  112. Format                         : UTF-8
  113. Codec ID                       : S_TEXT/UTF8
  114. Codec ID/Info                  : UTF-8 Plain Text
  115. Title                          : Korean [Forced]
  116. Language                       : Korean
  117. Default                        : No
  118. Forced                         : No
复制代码


购买主题 已有 1 人购买  本主题需向作者支付 60 金币 才能浏览
不二 发表于 2024-1-26 21:45:37 | 显示全部楼层
弹子球游戏
回复

使用道具 举报

顾扣林 发表于 2023-9-16 13:37:02 | 显示全部楼层
谢谢楼主分享
回复

使用道具 举报

nzaniubi 发表于 2023-5-27 15:35:41 | 显示全部楼层
感谢楼主分享
回复

使用道具 举报

雨辰760501 发表于 2023-5-25 18:16:38 | 显示全部楼层
看剧名就有意思
回复

使用道具 举报

行者47 发表于 2023-5-25 13:55:11 | 显示全部楼层
谢谢分享!6666666666666
回复

使用道具 举报

hwm54803 发表于 2023-5-25 06:22:02 | 显示全部楼层
谢谢楼主分享
回复

使用道具 举报

dqxa 发表于 2023-5-25 01:28:58 | 显示全部楼层
谢谢楼主分享
回复

使用道具 举报

您需要登录后才可以回帖 登录 | 立即注册

本版积分规则

QQ|Archiver|手机版|小黑屋|聚音影社区

GMT+8, 2024-6-17 11:28 , Processed in 0.096792 second(s), 18 queries .

Powered by Discuz! X3.5

© 2001-2024 Discuz! Team.

快速回复 返回顶部 返回列表