找回密码
 立即注册
搜索
热搜: 2023 高码

[115云盘]诱饵[2023][完结剧集][4K][韩语][内嵌简繁英字幕][40.04GB]

[复制链接]
lcw_008 发表于 2023-5-24 20:11:36 | 显示全部楼层 |阅读模式
◎译  名 诱饵 / 犯罪纪事 / 犯罪编年史 / 범죄의 연대기 / Decoy
◎片  名 미끼
◎年  代 2023
◎产  地 韩国
◎类  别 剧情 / 犯罪
◎语  言 韩语
◎上映日期 2023-01-27(韩国)
◎IMDb链接  https://www.imdb.com/title/tt26468611/
◎豆瓣评分 6.2/10 from 419 users
◎豆瓣链接   https://movie.douban.com/subject/36122219/
◎单集片长 60分钟
◎集  数 12
◎导       演  金弘善 / Hong-sun Kim
◎演       员  李伊利雅 / Elliya Lee
      张根硕 / Keun-Suk Jang
      许成泰 / Seong-tae Heo
◎简  介 
  通过令人发指的时事揭露过去未解决案件的真相的故事。
  1. General
  2. Unique ID                      : 243419549672662545136724608435527668267 (0xB720E664DA2F26BD85E31880E6A0D22B)
  3. Complete name                  : 诱饵.mkv
  4. Format                         : Matroska
  5. Format version                 : Version 4
  6. File size                      : 3.62 GiB
  7. Duration                       : 1 h 6 min
  8. Overall bit rate               : 7 805 kb/s
  9. Frame rate                     : 23.976 FPS
  10. Encoded date                   : 2023-05-23 23:33:35 UTC
  11. Writing application            : mkvmerge v7.5.0 ('Glass Culture') 64bit built on Jan  4 2015 16:48:44
  12. Writing library                : libebml v1.3.1 + libmatroska v1.4.2

  13. Video
  14. ID                             : 1
  15. Format                         : HEVC
  16. Format/Info                    : High Efficiency Video Coding
  17. Format profile                 : Main@L5@Main
  18. Codec ID                       : V_MPEGH/ISO/HEVC
  19. Duration                       : 1 h 6 min
  20. Bit rate                       : 7 162 kb/s
  21. Width                          : 3 840 pixels
  22. Height                         : 1 600 pixels
  23. Display aspect ratio           : 2.40:1
  24. Frame rate mode                : Constant
  25. Frame rate                     : 23.976 (24000/1001) FPS
  26. Standard                       : NTSC
  27. Color space                    : YUV
  28. Chroma subsampling             : 4:2:0
  29. Bit depth                      : 8 bits
  30. Bits/(Pixel*Frame)             : 0.049
  31. Stream size                    : 3.32 GiB (92%)
  32. Writing library                : x265 2.9_elemental+1-9e0607aa5b6f:[Linux][GCC 4.8.5][64 bit] 8bit+10bit+12bit
  33. Default                        : Yes
  34. Forced                         : No
  35. Color range                    : Limited
  36. Color primaries                : BT.709
  37. Transfer characteristics       : BT.709
  38. Matrix coefficients            : BT.709

  39. Audio
  40. ID                             : 2
  41. Format                         : E-AC-3
  42. Format/Info                    : Enhanced AC-3
  43. Commercial name                : Dolby Digital Plus
  44. Codec ID                       : A_EAC3
  45. Duration                       : 1 h 6 min
  46. Bit rate mode                  : Constant
  47. Bit rate                       : 640 kb/s
  48. Channel(s)                     : 6 channels
  49. Channel layout                 : L R C LFE Ls Rs
  50. Sampling rate                  : 48.0 kHz
  51. Frame rate                     : 31.250 FPS (1536 SPF)
  52. Compression mode               : Lossy
  53. Stream size                    : 304 MiB (8%)
  54. Title                          : Korean
  55. Language                       : Korean
  56. Service kind                   : Complete Main
  57. Default                        : Yes
  58. Forced                         : No

  59. Text #1
  60. ID                             : 3
  61. Format                         : UTF-8
  62. Codec ID                       : S_TEXT/UTF8
  63. Codec ID/Info                  : UTF-8 Plain Text
  64. Duration                       : 1 h 3 min
  65. Bit rate                       : 44 b/s
  66. Frame rate                     : 0.222 FPS
  67. Count of elements              : 850
  68. Stream size                    : 20.7 KiB (0%)
  69. Title                          : Simplified
  70. Language                       : Chinese
  71. Default                        : Yes
  72. Forced                         : No

  73. Text #2
  74. ID                             : 4
  75. Format                         : UTF-8
  76. Codec ID                       : S_TEXT/UTF8
  77. Codec ID/Info                  : UTF-8 Plain Text
  78. Duration                       : 1 h 3 min
  79. Bit rate                       : 44 b/s
  80. Frame rate                     : 0.222 FPS
  81. Count of elements              : 850
  82. Stream size                    : 20.7 KiB (0%)
  83. Title                          : Traditional
  84. Language                       : Chinese
  85. Default                        : No
  86. Forced                         : No

  87. Text #3
  88. ID                             : 5
  89. Format                         : UTF-8
  90. Codec ID                       : S_TEXT/UTF8
  91. Codec ID/Info                  : UTF-8 Plain Text
  92. Duration                       : 1 h 3 min
  93. Bit rate                       : 51 b/s
  94. Frame rate                     : 0.203 FPS
  95. Count of elements              : 778
  96. Stream size                    : 24.2 KiB (0%)
  97. Title                          : English
  98. Language                       : English
  99. Default                        : No
  100. Forced                         : No

  101. Text #6
  102. ID                             : 8
  103. Format                         : UTF-8
  104. Codec ID                       : S_TEXT/UTF8
  105. Codec ID/Info                  : UTF-8 Plain Text
  106. Duration                       : 1 h 6 min
  107. Bit rate                       : 77 b/s
  108. Frame rate                     : 0.263 FPS
  109. Count of elements              : 1047
  110. Stream size                    : 37.6 KiB (0%)
  111. Title                          : Korean (SDH)
  112. Language                       : Korean
  113. Default                        : No
  114. Forced                         : No
复制代码


购买主题 本主题需向作者支付 20 金币 才能浏览
顾扣林 发表于 2023-9-15 10:04:53 | 显示全部楼层
谢谢楼主分享
回复

使用道具 举报

nzaniubi 发表于 2023-5-27 15:31:29 | 显示全部楼层
感谢楼主分享
回复

使用道具 举报

赵日天 发表于 2023-5-26 15:48:13 | 显示全部楼层
谢谢楼主分享
回复

使用道具 举报

雨辰760501 发表于 2023-5-25 18:10:13 | 显示全部楼层
谢谢楼主分享
回复

使用道具 举报

hwm54803 发表于 2023-5-25 06:18:23 | 显示全部楼层
谢谢楼主分享
回复

使用道具 举报

难得吃亏 发表于 2023-5-25 04:05:04 | 显示全部楼层
谢谢楼主分享
回复

使用道具 举报

ESXF 发表于 2023-5-25 01:45:23 | 显示全部楼层
谢谢楼主分享
回复

使用道具 举报

dqxa 发表于 2023-5-25 01:26:23 | 显示全部楼层
谢谢楼主分享
回复

使用道具 举报

您需要登录后才可以回帖 登录 | 立即注册

本版积分规则

QQ|Archiver|手机版|小黑屋|聚音影社区

GMT+8, 2024-6-17 12:34 , Processed in 0.080630 second(s), 18 queries .

Powered by Discuz! X3.5

© 2001-2024 Discuz! Team.

快速回复 返回顶部 返回列表