找回密码
 立即注册
搜索
热搜: 2023 高码

[115云盘]苏里南[2022][完结剧集][4KHDR][韩语][内嵌简繁英字幕][52.16GB]

  [复制链接]
lcw_008 发表于 2023-5-25 00:07:28 | 显示全部楼层 |阅读模式
本帖最后由 lcw_008 于 2024-4-6 15:10 编辑

◎译  名 苏里南 / 毒枭圣徒 / 苏利南 / Narco-Saints / Surinam / The Accidental Narco
◎片  名 수리남
◎年  代 2022
◎产  地 韩国
◎类  别 剧情 / 动作 / 惊悚 / 传记 / 犯罪
◎语  言 韩语
◎上映日期 2022-09-09(韩国)
◎IMDb评分  7.3/10 from 4475 users
◎IMDb链接  https://www.imdb.com/title/tt14518692/
◎豆瓣评分 6.9/10 from 44755 users
◎豆瓣链接   https://movie.douban.com/subject/34442059/
◎单集片长 60分钟
◎集  数 6
◎导       演  尹钟彬 / Jong-bin Yoon
◎演       员  河正宇 / Jung-woo Ha | 饰 姜仁久
      黄政民 / Jeong-min Hwang | 饰 全耀焕
      朴海秀 / Hae-soo Park | 饰 崔昌浩
      赵祐镇 / Woo-jin Jo | 饰 卞基泰
      柳演锡 / Yeon-Seok Yoo | 饰 朴大卫
      张震 / Chen Chang | 饰 陈震
      秋瓷炫 / Ja-Hyeon Chu | 饰 朴慧真
      玄奉植 / Bong-shik Hyun | 饰 朴应守
      李正恩 / Lee Jeong-eun
      奇迪·阿朱福 / Chidi Ajufo | 饰 Gallas
      丹尼尔·C·肯尼迪 / Daniel C Kennedy | 饰 Blue Team Leader
      布莱恩·拉金 / Bryan Larkin | 饰 DEA Chief
      沈惠妍 / Shim Hye Yun | 饰 姜敏书
      金瑞俊 / Kim Seo Jun | 饰 姜炯柱
      金敏贵 / Kim Min-Gwi | 饰 李相俊
      金时贤 / KIM SI-HYUN | 饰 诗贤
      南镇福 / Nam Jin Bok | 饰 邻居事业主
◎编       剧  尹钟彬 / Jong-bin Yoon
      权圣辉 / Sung-hui Kwon
◎简  介 
  Netflix 剧集《毒枭圣徒》讲述了一名男子被控制着整个苏里南的大毒枭陷害后,参与了国家情报局 (NIS) 的秘密行动。
◎获奖情况 
       第59届百想艺术大赏 (2023)
  电视类 最佳男配角 赵祐镇
  1. General
  2. Unique ID                      : 146896784115967637555000387049101942767 (0x6E834AA177EBF9F36DCC85571D275FEF)
  3. Complete name                  : 苏里南.mkv
  4. Format                         : Matroska
  5. Format version                 : Version 4
  6. File size                      : 8.62 GiB
  7. Duration                       : 1 h 0 min
  8. Overall bit rate               : 20.2 Mb/s
  9. Frame rate                     : 23.976 FPS
  10. Movie name                     : Narco-Saints S01E01
  11. Writing application            : mkvmerge v72.0.0 ('Minuano (Six-eight)') 64-bit
  12. Writing library                : libebml v1.4.4 + libmatroska v1.7.1
  13. IMDB                           : tt14518692
  14. TMDB                           : tv/97970
  15. TVDB                           : 417177

  16. Video
  17. ID                             : 1
  18. Format                         : HEVC
  19. Format/Info                    : High Efficiency Video Coding
  20. Format profile                 : Main 10@L5@Main
  21. HDR format                     : Dolby Vision, Version 1.0, dvhe.08.06, BL+RPU, HDR10 compatible / SMPTE ST 2086, HDR10 compatible
  22. Codec ID                       : V_MPEGH/ISO/HEVC
  23. Duration                       : 1 h 0 min
  24. Bit rate                       : 19.5 Mb/s
  25. Width                          : 3 840 pixels
  26. Height                         : 2 160 pixels
  27. Display aspect ratio           : 16:9
  28. Frame rate mode                : Constant
  29. Frame rate                     : 23.976 (24000/1001) FPS
  30. Color space                    : YUV
  31. Chroma subsampling             : 4:2:0 (Type 2)
  32. Bit depth                      : 10 bits
  33. Bits/(Pixel*Frame)             : 0.098
  34. Stream size                    : 8.29 GiB (96%)
  35. Default                        : Yes
  36. Forced                         : No
  37. Color range                    : Limited
  38. Color primaries                : BT.2020
  39. Transfer characteristics       : PQ
  40. Matrix coefficients            : BT.2020 non-constant
  41. Mastering display color primar : Display P3
  42. Mastering display luminance    : min: 0.0001 cd/m2, max: 1000 cd/m2
  43. Maximum Content Light Level    : 954 cd/m2
  44. Maximum Frame-Average Light Le : 155 cd/m2

  45. Audio
  46. ID                             : 2
  47. Format                         : E-AC-3 JOC
  48. Format/Info                    : Enhanced AC-3 with Joint Object Coding
  49. Commercial name                : Dolby Digital Plus with Dolby Atmos
  50. Codec ID                       : A_EAC3
  51. Duration                       : 1 h 0 min
  52. Bit rate mode                  : Constant
  53. Bit rate                       : 768 kb/s
  54. Channel(s)                     : 6 channels
  55. Channel layout                 : L R C LFE Ls Rs
  56. Sampling rate                  : 48.0 kHz
  57. Frame rate                     : 31.250 FPS (1536 SPF)
  58. Compression mode               : Lossy
  59. Stream size                    : 335 MiB (4%)
  60. Language                       : Korean
  61. Service kind                   : Complete Main
  62. Default                        : Yes
  63. Forced                         : No
  64. Complexity index               : 16
  65. Number of dynamic objects      : 15
  66. Bed channel count              : 1 channel
  67. Bed channel configuration      : LFE

  68. Text #1
  69. ID                             : 3
  70. Format                         : UTF-8
  71. Codec ID                       : S_TEXT/UTF8
  72. Codec ID/Info                  : UTF-8 Plain Text
  73. Duration                       : 56 min 59 s
  74. Bit rate                       : 66 b/s
  75. Frame rate                     : 0.203 FPS
  76. Count of elements              : 694
  77. Stream size                    : 27.8 KiB (0%)
  78. Language                       : English
  79. Default                        : Yes
  80. Forced                         : No

  81. Text #3
  82. ID                             : 5
  83. Format                         : UTF-8
  84. Codec ID                       : S_TEXT/UTF8
  85. Codec ID/Info                  : UTF-8 Plain Text
  86. Duration                       : 1 h 0 min
  87. Bit rate                       : 58 b/s
  88. Frame rate                     : 0.234 FPS
  89. Count of elements              : 854
  90. Stream size                    : 25.9 KiB (0%)
  91. Title                          : Simplified
  92. Language                       : Chinese (Simplified)
  93. Default                        : No
  94. Forced                         : No

  95. Text #4
  96. ID                             : 6
  97. Format                         : UTF-8
  98. Codec ID                       : S_TEXT/UTF8
  99. Codec ID/Info                  : UTF-8 Plain Text
  100. Duration                       : 1 h 0 min
  101. Bit rate                       : 58 b/s
  102. Frame rate                     : 0.230 FPS
  103. Count of elements              : 837
  104. Stream size                    : 26.1 KiB (0%)
  105. Title                          : Traditional
  106. Language                       : Chinese (Traditional)
  107. Default                        : No
  108. Forced                         : No

  109. Text #19
  110. ID                             : 21
  111. Format                         : UTF-8
  112. Codec ID                       : S_TEXT/UTF8
  113. Codec ID/Info                  : UTF-8 Plain Text
  114. Duration                       : 1 h 0 min
  115. Bit rate                       : 91 b/s
  116. Frame rate                     : 0.264 FPS
  117. Count of elements              : 962
  118. Stream size                    : 40.7 KiB (0%)
  119. Title                          : SDH
  120. Language                       : Korean
  121. Default                        : No
  122. Forced                         : No
复制代码
游客,如果您要查看本帖隐藏内容请回复
18074238080 发表于 2024-2-11 17:58:31 | 显示全部楼层
谢谢楼主分享
回复

使用道具 举报

顾扣林 发表于 2023-9-16 11:07:13 | 显示全部楼层
谢谢楼主分享
回复

使用道具 举报

难得吃亏 发表于 2023-7-16 05:41:46 | 显示全部楼层
谢谢楼主分享
回复

使用道具 举报

dqxa 发表于 2023-5-28 06:57:08 | 显示全部楼层
谢谢楼主分享
回复

使用道具 举报

ESXF 发表于 2023-5-28 00:54:57 | 显示全部楼层
谢谢楼主分享
回复

使用道具 举报

ESXF 发表于 2023-5-27 11:19:14 | 显示全部楼层
谢谢楼主分享
回复

使用道具 举报

赵日天 发表于 2023-5-25 20:37:16 | 显示全部楼层
谢谢楼主分享
回复

使用道具 举报

雨辰760501 发表于 2023-5-25 16:52:00 | 显示全部楼层
很真实的电视剧
回复

使用道具 举报

414562085 发表于 2023-5-25 14:09:14 | 显示全部楼层
谢谢楼主分享
回复

使用道具 举报

您需要登录后才可以回帖 登录 | 立即注册

本版积分规则

QQ|Archiver|手机版|小黑屋|聚音影社区

GMT+8, 2024-5-21 02:27 , Processed in 0.070045 second(s), 15 queries .

Powered by Discuz! X3.5

© 2001-2024 Discuz! Team.

快速回复 返回顶部 返回列表