找回密码
 立即注册
搜索
热搜: 2023 高码

[115云盘]泰国洞穴救援事件簿[2022][完结剧集][4K][泰语][内嵌简繁英字幕][28.73GB]

[复制链接]
lcw_008 发表于 2023-5-26 22:47:09 | 显示全部楼层 |阅读模式
◎译  名 泰国洞穴救援事件簿 / Thai Cave Rescue / ปฏิบัติการกู้ชีพถ้ำหลวง
◎片  名 ถ้ำหลวง: ภารกิจแห่งความหวัง
◎年  代 2022
◎产  地 泰国 / 美国
◎类  别 剧情 / 惊悚 / 冒险
◎语  言 泰语
◎上映日期 2022-09-22(泰国)
◎IMDb评分  7.8/10 from 2094 users
◎IMDb链接  https://www.imdb.com/title/tt8726102/
◎豆瓣评分 7.9/10 from 458 users
◎豆瓣链接   https://movie.douban.com/subject/34909185/
◎单集片长 60分钟
◎集  数 6
◎导       演  纳塔吾·彭皮里亚 / Nattawut Poonpiriya
      朱浩伟 / Jon M. Chu
      凯文·坦查隆 / Kevin Tancharoen
◎演       员  帕庞科恩·勒查林波特 / Papangkorn Lerkchaleampote | 饰 Coach Ek
      乌拉萨雅·斯帕邦德 / Urassaya Sperbund | 饰 Kelly Suwannarat             / ...
      塔内·瓦拉库努娄 / Thaneth Warakulnukroh | 饰 Governor Narongsak             / ...
      阿丽莎拉·翁差丽 / Arisara Wongchalee | 饰 Namhom
      Watthanachai Treedecha Watthanachai Treedecha | 饰 Titan's Dad
      Tanapol Chuksrida Tanapol Chuksrida | 饰 Admiral Apakorn
      克里斯托弗·斯特勒瑞 / Christopher Stollery | 饰 Rick Stanton
      Duangjai Hiransri Duangjai Hiransri | 饰 Tle's Mom
      尼克·法内尔 / Nick Farnell | 饰 John Volanthen
      Stephen Phillips Stephen Phillips | 饰 Major Charles Hensen
      黛莉娜·班楚 / Darina Bunchu | 饰 Noon
      加鲁南·潘他猜 / Jarunun Phantachat | 饰 Dom's Aunt
      尼古拉斯·贝尔 / Nicholas Bell | 饰 Vern
      达蒙·海瑞曼 / Damon Herriman | 饰 Dr. Craig Challen
      欧卡·基拉蒂 / Oak Keerati | 饰 Buddy
      罗杰·科瑟 / Rodger Corser | 饰 Harry / Dr. Harris
      Supakorn Kitsuwon Supakorn Kitsuwon | 饰 Sam
      玛娜莎楠·潘叻翁固 / Manatsanun Panlertwongskul | 饰 Pim
◎编       剧  达娜·莱杜克斯·米勒 / Dana Ledoux Miller
◎摄       影  皮泰·史密斯苏特 / Pithai Smithsuth
◎服       装  Jo Katsaras Jo Katsaras
◎简  介 
  《泰洞救援》改编自令人难以置信的新闻,这一新闻曾震惊全球,讲述了泰国青年足球队和他们的教练不为人知的故事,他们被困在地球上最危险的洞穴之一,他们的家人、泰国人民和来自世界各地的志愿者共同努力对抗大自然,争分夺秒拯救该球队。
  1. General
  2. Unique ID                      : 26085965561454799668375003764628331382 (0x139FF96680815D9D49550A23B06B1B76)
  3. Complete name                  : 泰国洞穴救援事件簿.mkv
  4. Format                         : Matroska
  5. Format version                 : Version 4
  6. File size                      : 4.03 GiB
  7. Duration                       : 53 min 37 s
  8. Overall bit rate               : 10.8 Mb/s
  9. Frame rate                     : 24.000 FPS
  10. Writing application            : mkvmerge v61.0.0 ('So') 64-bit
  11. Writing library                : libebml v1.4.2 + libmatroska v1.6.4

  12. Video
  13. ID                             : 1
  14. Format                         : HEVC
  15. Format/Info                    : High Efficiency Video Coding
  16. Format profile                 : Main 10@L5@Main
  17. Codec ID                       : V_MPEGH/ISO/HEVC
  18. Duration                       : 53 min 37 s
  19. Bit rate                       : 9 985 kb/s
  20. Width                          : 3 840 pixels
  21. Height                         : 2 160 pixels
  22. Display aspect ratio           : 16:9
  23. Frame rate mode                : Constant
  24. Frame rate                     : 24.000 FPS
  25. Color space                    : YUV
  26. Chroma subsampling             : 4:2:0
  27. Bit depth                      : 10 bits
  28. Bits/(Pixel*Frame)             : 0.050
  29. Stream size                    : 3.74 GiB (93%)
  30. Default                        : Yes
  31. Forced                         : No
  32. Color range                    : Limited
  33. Color primaries                : BT.709
  34. Transfer characteristics       : BT.709
  35. Matrix coefficients            : BT.709

  36. Audio
  37. ID                             : 2
  38. Format                         : E-AC-3 JOC
  39. Format/Info                    : Enhanced AC-3 with Joint Object Coding
  40. Commercial name                : Dolby Digital Plus with Dolby Atmos
  41. Codec ID                       : A_EAC3
  42. Duration                       : 53 min 37 s
  43. Bit rate mode                  : Constant
  44. Bit rate                       : 768 kb/s
  45. Channel(s)                     : 6 channels
  46. Channel layout                 : L R C LFE Ls Rs
  47. Sampling rate                  : 48.0 kHz
  48. Frame rate                     : 31.250 FPS (1536 SPF)
  49. Compression mode               : Lossy
  50. Stream size                    : 295 MiB (7%)
  51. Language                       : Thai
  52. Service kind                   : Complete Main
  53. Default                        : Yes
  54. Forced                         : No
  55. Complexity index               : 16
  56. Number of dynamic objects      : 15
  57. Bed channel count              : 1 channel
  58. Bed channel configuration      : LFE

  59. Text #1
  60. ID                             : 3
  61. Format                         : UTF-8
  62. Codec ID                       : S_TEXT/UTF8
  63. Codec ID/Info                  : UTF-8 Plain Text
  64. Duration                       : 48 min 19 s
  65. Bit rate                       : 28 b/s
  66. Frame rate                     : 0.044 FPS
  67. Count of elements              : 128
  68. Stream size                    : 9.96 KiB (0%)
  69. Title                          : Forced
  70. Language                       : Thai
  71. Default                        : Yes
  72. Forced                         : Yes

  73. Text #2
  74. ID                             : 4
  75. Format                         : UTF-8
  76. Codec ID                       : S_TEXT/UTF8
  77. Codec ID/Info                  : UTF-8 Plain Text
  78. Duration                       : 48 min 17 s
  79. Bit rate                       : 25 b/s
  80. Frame rate                     : 0.043 FPS
  81. Count of elements              : 126
  82. Stream size                    : 8.86 KiB (0%)
  83. Title                          : Forced
  84. Language                       : Thai-x-full
  85. Default                        : Yes
  86. Forced                         : Yes

  87. Text #10
  88. ID                             : 12
  89. Format                         : UTF-8
  90. Codec ID                       : S_TEXT/UTF8
  91. Codec ID/Info                  : UTF-8 Plain Text
  92. Duration                       : 42 min 48 s
  93. Bit rate                       : 71 b/s
  94. Frame rate                     : 0.259 FPS
  95. Count of elements              : 665
  96. Stream size                    : 22.3 KiB (0%)
  97. Language                       : English
  98. Default                        : No
  99. Forced                         : No

  100. Text #11
  101. ID                             : 13
  102. Format                         : UTF-8
  103. Codec ID                       : S_TEXT/UTF8
  104. Codec ID/Info                  : UTF-8 Plain Text
  105. Duration                       : 43 min 39 s
  106. Bit rate                       : 82 b/s
  107. Frame rate                     : 0.292 FPS
  108. Count of elements              : 765
  109. Stream size                    : 26.5 KiB (0%)
  110. Title                          : SDH
  111. Language                       : English
  112. Default                        : No
  113. Forced                         : No

  114. Text #38
  115. ID                             : 40
  116. Format                         : UTF-8
  117. Codec ID                       : S_TEXT/UTF8
  118. Codec ID/Info                  : UTF-8 Plain Text
  119. Duration                       : 48 min 4 s
  120. Bit rate                       : 62 b/s
  121. Frame rate                     : 0.243 FPS
  122. Count of elements              : 702
  123. Stream size                    : 22.0 KiB (0%)
  124. Title                          : Simplified
  125. Language                       : Chinese (Simplified)
  126. Default                        : No
  127. Forced                         : No

  128. Text #39
  129. ID                             : 41
  130. Format                         : UTF-8
  131. Codec ID                       : S_TEXT/UTF8
  132. Codec ID/Info                  : UTF-8 Plain Text
  133. Duration                       : 48 min 4 s
  134. Bit rate                       : 58 b/s
  135. Frame rate                     : 0.243 FPS
  136. Count of elements              : 702
  137. Stream size                    : 20.7 KiB (0%)
  138. Title                          : Traditional
  139. Language                       : Chinese (Traditional)
  140. Default                        : No
  141. Forced                         : No

  142. Menu
  143. 00:43:57.000                   : en:End Credits
复制代码


购买主题 本主题需向作者支付 15 金币 才能浏览
顾扣林 发表于 2023-9-15 09:02:47 | 显示全部楼层

谢谢楼主分享
回复

使用道具 举报

dqxa 发表于 2023-5-28 06:37:37 | 显示全部楼层
谢谢楼主分享
回复

使用道具 举报

行者47 发表于 2023-5-27 22:04:56 | 显示全部楼层
谢谢分享 6666666666
回复

使用道具 举报

雨辰760501 发表于 2023-5-27 18:58:40 | 显示全部楼层
感谢楼主每天发帖分享,楼主辛苦了,谢谢楼主
回复

使用道具 举报

v3344560 发表于 2023-5-27 18:29:49 | 显示全部楼层
谢谢楼主分享
回复

使用道具 举报

nzaniubi 发表于 2023-5-27 13:33:56 | 显示全部楼层
感谢楼主分享
回复

使用道具 举报

hwm54803 发表于 2023-5-27 06:07:22 | 显示全部楼层
谢谢楼主分享
回复

使用道具 举报

难得吃亏 发表于 2023-5-27 05:17:02 | 显示全部楼层
谢谢楼主分享
回复

使用道具 举报

您需要登录后才可以回帖 登录 | 立即注册

本版积分规则

QQ|Archiver|手机版|小黑屋|聚音影社区

GMT+8, 2024-5-21 02:04 , Processed in 0.070833 second(s), 18 queries .

Powered by Discuz! X3.5

© 2001-2024 Discuz! Team.

快速回复 返回顶部 返回列表