找回密码
 立即注册
搜索
热搜: 2023 高码

[115云盘]定时开关[2023][完结剧集][4KHDR][葡萄牙语][内嵌繁英字幕][28.29GB]

[复制链接]
lcw_008 发表于 2023-5-26 23:13:06 | 显示全部楼层 |阅读模式
◎译  名 定时开关
◎片  名 Dois Tempos /Time Switch
◎年  代 2023
◎产  地 巴西
◎类  别 剧情 / 奇幻
◎语  言 葡萄牙语
◎上映日期 2023-05-10(巴西)
◎IMDb评分  6.4/10 from 61 users
◎IMDb链接  https://www.imdb.com/title/tt15523440/
◎豆瓣链接 https://douban.com/subject/36404287/
◎单集片长 35
◎集  数 8
◎简  介 
    一个关于两个女孩从1922年到2022年穿越时间和地点的故事。
  1. General
  2. Unique ID                      : 218950879692023276885071805772653343199 (0xA4B867D271D014E3AEDF4F684C0731DF)
  3. Complete name                  : 定时开关.mkv
  4. Format                         : Matroska
  5. Format version                 : Version 4
  6. File size                      : 3.81 GiB
  7. Duration                       : 37 min 50 s
  8. Overall bit rate               : 14.4 Mb/s
  9. Frame rate                     : 23.976 FPS
  10. Writing application            : mkvmerge v75.0.0 ('Goliath') 64-bit
  11. Writing library                : libebml v1.4.4 + libmatroska v1.7.1

  12. Video
  13. ID                             : 1
  14. Format                         : HEVC
  15. Format/Info                    : High Efficiency Video Coding
  16. Format profile                 : Main 10@L5@High
  17. HDR format                     : Dolby Vision, Version 1.0, dvhe.08.06, BL+RPU, HDR10 compatible / SMPTE ST 2086, HDR10 compatible
  18. Codec ID                       : V_MPEGH/ISO/HEVC
  19. Duration                       : 37 min 50 s
  20. Bit rate                       : 13.4 Mb/s
  21. Width                          : 3 840 pixels
  22. Height                         : 2 160 pixels
  23. Display aspect ratio           : 16:9
  24. Frame rate mode                : Constant
  25. Frame rate                     : 23.976 (24000/1001) FPS
  26. Color space                    : YUV
  27. Chroma subsampling             : 4:2:0
  28. Bit depth                      : 10 bits
  29. Bits/(Pixel*Frame)             : 0.067
  30. Stream size                    : 3.54 GiB (93%)
  31. Language                       : Portuguese (BR)
  32. Default                        : Yes
  33. Forced                         : No
  34. Color range                    : Limited
  35. Color primaries                : BT.2020
  36. Transfer characteristics       : PQ
  37. Matrix coefficients            : BT.2020 non-constant
  38. Mastering display color primar : BT.2020
  39. Mastering display luminance    : min: 0.0001 cd/m2, max: 1000 cd/m2

  40. Audio #1
  41. ID                             : 2
  42. Format                         : E-AC-3 JOC
  43. Format/Info                    : Enhanced AC-3 with Joint Object Coding
  44. Commercial name                : Dolby Digital Plus with Dolby Atmos
  45. Codec ID                       : A_EAC3
  46. Duration                       : 37 min 50 s
  47. Bit rate mode                  : Constant
  48. Bit rate                       : 768 kb/s
  49. Channel(s)                     : 6 channels
  50. Channel layout                 : L R C LFE Ls Rs
  51. Sampling rate                  : 48.0 kHz
  52. Frame rate                     : 31.250 FPS (1536 SPF)
  53. Compression mode               : Lossy
  54. Stream size                    : 208 MiB (5%)
  55. Title                          : Brazilian
  56. Language                       : Portuguese (BR)
  57. Service kind                   : Complete Main
  58. Default                        : Yes
  59. Forced                         : No
  60. Complexity index               : 16
  61. Number of dynamic objects      : 15
  62. Bed channel count              : 1 channel
  63. Bed channel configuration      : LFE

  64. Audio #2
  65. ID                             : 3
  66. Format                         : E-AC-3
  67. Format/Info                    : Enhanced AC-3
  68. Commercial name                : Dolby Digital Plus
  69. Codec ID                       : A_EAC3
  70. Duration                       : 37 min 50 s
  71. Bit rate mode                  : Constant
  72. Bit rate                       : 256 kb/s
  73. Channel(s)                     : 6 channels
  74. Channel layout                 : L R C LFE Ls Rs
  75. Sampling rate                  : 48.0 kHz
  76. Frame rate                     : 31.250 FPS (1536 SPF)
  77. Compression mode               : Lossy
  78. Stream size                    : 69.3 MiB (2%)
  79. Language                       : English
  80. Service kind                   : Complete Main
  81. Default                        : No
  82. Forced                         : No

  83. Text #1
  84. ID                             : 4
  85. Format                         : UTF-8
  86. Codec ID                       : S_TEXT/UTF8
  87. Codec ID/Info                  : UTF-8 Plain Text
  88. Duration                       : 35 min 27 s
  89. Bit rate                       : 85 b/s
  90. Frame rate                     : 0.237 FPS
  91. Count of elements              : 504
  92. Stream size                    : 22.1 KiB (0%)
  93. Title                          : Brazilian (SDH)
  94. Language                       : Portuguese (BR)
  95. Default                        : No
  96. Forced                         : No

  97. Text #2
  98. ID                             : 5
  99. Format                         : UTF-8
  100. Codec ID                       : S_TEXT/UTF8
  101. Codec ID/Info                  : UTF-8 Plain Text
  102. Duration                       : 36 min 54 s
  103. Bit rate                       : 74 b/s
  104. Frame rate                     : 0.220 FPS
  105. Count of elements              : 487
  106. Stream size                    : 20.2 KiB (0%)
  107. Language                       : Portuguese (PT)
  108. Default                        : No
  109. Forced                         : No

  110. Text #3
  111. ID                             : 6
  112. Format                         : UTF-8
  113. Codec ID                       : S_TEXT/UTF8
  114. Codec ID/Info                  : UTF-8 Plain Text
  115. Duration                       : 33 min 7 s
  116. Bit rate                       : 2 b/s
  117. Frame rate                     : 0.013 FPS
  118. Count of elements              : 26
  119. Stream size                    : 555 Bytes (0%)
  120. Title                          : Forced
  121. Language                       : English
  122. Default                        : No
  123. Forced                         : Yes

  124. Text #4
  125. ID                             : 7
  126. Format                         : UTF-8
  127. Codec ID                       : S_TEXT/UTF8
  128. Codec ID/Info                  : UTF-8 Plain Text
  129. Duration                       : 35 min 10 s
  130. Bit rate                       : 85 b/s
  131. Frame rate                     : 0.250 FPS
  132. Count of elements              : 527
  133. Stream size                    : 21.9 KiB (0%)
  134. Language                       : English
  135. Default                        : No
  136. Forced                         : No

  137. Text #5
  138. ID                             : 8
  139. Format                         : UTF-8
  140. Codec ID                       : S_TEXT/UTF8
  141. Codec ID/Info                  : UTF-8 Plain Text
  142. Duration                       : 35 min 37 s
  143. Bit rate                       : 91 b/s
  144. Frame rate                     : 0.272 FPS
  145. Count of elements              : 582
  146. Stream size                    : 24.0 KiB (0%)
  147. Title                          : SDH
  148. Language                       : English
  149. Default                        : No
  150. Forced                         : No

  151. Text #24
  152. ID                             : 27
  153. Format                         : UTF-8
  154. Codec ID                       : S_TEXT/UTF8
  155. Codec ID/Info                  : UTF-8 Plain Text
  156. Duration                       : 37 min 4 s
  157. Bit rate                       : 69 b/s
  158. Frame rate                     : 0.232 FPS
  159. Count of elements              : 516
  160. Stream size                    : 18.9 KiB (0%)
  161. Title                          : Traditional
  162. Language                       : Chinese (Traditional)
  163. Default                        : No
  164. Forced                         : No

  165. Menu
  166. 00:00:04.004                   : en:Intro
  167. 00:00:47.714                   : en:Scene 1
  168. 00:36:23.141                   : en:Credits
复制代码


购买主题 本主题需向作者支付 20 金币 才能浏览
顾扣林 发表于 2023-9-15 09:08:56 | 显示全部楼层
谢谢楼主分享
回复

使用道具 举报

dqxa 发表于 2023-5-28 06:32:29 | 显示全部楼层
谢谢楼主分享
回复

使用道具 举报

雨辰760501 发表于 2023-5-27 18:50:55 | 显示全部楼层
感谢楼主每天发帖分享,楼主辛苦了,谢谢楼主
回复

使用道具 举报

nzaniubi 发表于 2023-5-27 13:19:30 | 显示全部楼层
感谢楼主分享
回复

使用道具 举报

hwm54803 发表于 2023-5-27 06:02:57 | 显示全部楼层
谢谢楼主分享
回复

使用道具 举报

v3344560 发表于 2023-5-27 00:24:14 | 显示全部楼层
谢谢楼主分享
回复

使用道具 举报

您需要登录后才可以回帖 登录 | 立即注册

本版积分规则

QQ|Archiver|手机版|小黑屋|聚音影社区

GMT+8, 2024-5-21 02:06 , Processed in 0.071842 second(s), 18 queries .

Powered by Discuz! X3.5

© 2001-2024 Discuz! Team.

快速回复 返回顶部 返回列表