找回密码
 立即注册
搜索
热搜: 2023 高码

[115云盘]哈哈哈哈哈 第二季[2021][完结剧集][4K][国语][中文字幕][51.09GB]

[复制链接]
lcw_008 发表于 2023-9-8 13:10:02 | 显示全部楼层 |阅读模式
◎译  名 哈哈哈哈哈 第二季 / 哈哈哈哈哈2 / 五哈2
◎片  名 哈哈哈哈哈 第二季
◎年  代 2021
◎产  地 中国大陆
◎类  别 真人秀
◎语  言 汉语普通话
◎上映日期 2021-11-20(中国大陆)
◎豆瓣评分 5.0/10 from 18226 users
◎单集片长 130分钟
◎集  数 10
◎演       员  邓超 / Chao Deng
      陈赫 / He Chen
      鹿晗 / Han Lu
      郭京飞 / Jingfei Guo
      彭昱畅 / Yuchang Peng
      魏大勋 / Daxun Wei
      王勉 / Mian Wang
      刘昊然 / Haoran Liu
      苗阜 / Fu Miao
      陈伟霆 / William Chan
      郭涛 / Tao Guo
◎制  片  人  龚宇 / Yu Gong
◎简  介 
  该励志旅行真人秀由邓超、陈赫、鹿晗、郭京飞、彭昱畅等人组成“五哈旅行团”,共同开启10场始料未及的旅行,游历中国十个城市,体验当地的地理人文风俗、倾听普通人的生活故事,同时用乐观且努力的“哈哈”精神通过各种任务关卡,应对生活的五味。
  1. General
  2. Complete name                  : 哈哈哈哈哈 第二季.mp4
  3. Format                         : MPEG-4
  4. Format profile                 : Base Media
  5. Codec ID                       : isom (isom/iso2/mp41)
  6. File size                      : 1.09 GiB
  7. Duration                       : 37 min 47 s
  8. Overall bit rate mode          : Variable
  9. Overall bit rate               : 4 121 kb/s
  10. Frame rate                     : 25.000 FPS
  11. Writing application            : Lavf59.16.100

  12. Video
  13. ID                             : 1
  14. Format                         : HEVC
  15. Format/Info                    : High Efficiency Video Coding
  16. Format profile                 : Main@L5@Main
  17. Codec ID                       : hev1
  18. Codec ID/Info                  : High Efficiency Video Coding
  19. Duration                       : 37 min 47 s
  20. Source duration                : 37 min 47 s
  21. Bit rate                       : 3 764 kb/s
  22. Maximum bit rate               : 3 930 kb/s
  23. Width                          : 3 840 pixels
  24. Height                         : 2 160 pixels
  25. Display aspect ratio           : 16:9
  26. Frame rate mode                : Constant
  27. Frame rate                     : 25.000 FPS
  28. Color space                    : YUV
  29. Chroma subsampling             : 4:2:0
  30. Bit depth                      : 8 bits
  31. Bits/(Pixel*Frame)             : 0.018
  32. Stream size                    : 1 018 MiB (91%)
  33. Source stream size             : 1.04 GiB (95%)
  34. mdhd_Duration                  : 2267720
  35. Codec configuration box        : hvcC

  36. Audio
  37. ID                             : 2
  38. Format                         : AAC LC
  39. Format/Info                    : Advanced Audio Codec Low Complexity
  40. Codec ID                       : mp4a-40-2
  41. Duration                       : 37 min 47 s
  42. Source duration                : 37 min 47 s
  43. Bit rate mode                  : Variable
  44. Bit rate                       : 186 kb/s
  45. Maximum bit rate               : 190 kb/s
  46. Channel(s)                     : 2 channels
  47. Channel layout                 : L R
  48. Sampling rate                  : 44.1 kHz
  49. Frame rate                     : 43.066 FPS (1024 SPF)
  50. Compression mode               : Lossy
  51. Stream size                    : 50.2 MiB (5%)
  52. Source stream size             : 50.2 MiB (5%)
  53. Default                        : Yes
  54. Alternate group                : 1
复制代码

购买主题 已有 1 人购买  本主题需向作者支付 30 金币 才能浏览
nzaniubi 发表于 2023-9-10 20:43:36 | 显示全部楼层
感谢楼主分享
回复

使用道具 举报

alittlehero 发表于 2023-9-9 11:19:22 | 显示全部楼层
  1. [size=2][url=forum.php?mod=redirect&goto=findpost&pid=222791&ptid=18034][color=#999999]alittlehero 发表于 2023-9-9 11:16[/color][/url][/size]
  2. 谢谢楼主分享
复制代码

谢谢楼主分享
回复

使用道具 举报

alittlehero 发表于 2023-9-9 11:16:32 | 显示全部楼层
谢谢楼主分享
回复

使用道具 举报

顾扣林 发表于 2023-9-9 10:48:06 | 显示全部楼层
谢谢楼主分享
回复

使用道具 举报

hwm54803 发表于 2023-9-9 06:54:18 | 显示全部楼层
谢谢楼主分享
回复

使用道具 举报

dqxa 发表于 2023-9-9 03:51:42 | 显示全部楼层
谢谢楼主分享
回复

使用道具 举报

jason166 发表于 2023-9-8 21:07:30 | 显示全部楼层

感谢楼主每天辛苦发帖,谢谢楼主分享
回复

使用道具 举报

雨辰760501 发表于 2023-9-8 19:42:37 | 显示全部楼层
感谢楼主每天辛苦发帖,谢谢楼主分享
回复

使用道具 举报

您需要登录后才可以回帖 登录 | 立即注册

本版积分规则

QQ|Archiver|手机版|小黑屋|聚音影社区

GMT+8, 2024-6-17 11:56 , Processed in 0.099351 second(s), 18 queries .

Powered by Discuz! X3.5

© 2001-2024 Discuz! Team.

快速回复 返回顶部 返回列表