找回密码
 立即注册
搜索
热搜: 2023 高码

[115云盘]我们的日子[2023][完结剧集][4KHDR][国语][中文字幕][142.60GB]

  [复制链接]
lcw_008 发表于 2023-9-9 22:32:35 | 显示全部楼层 |阅读模式

◎片  名 我们的日子
◎年  代 2023
◎产  地 中国大陆
◎类  别 剧情/家庭
◎语  言 汉语普通话
◎上映日期 2023-02-06(中国大陆)
◎IMDb评分  7.2/10 from 6 users
◎豆瓣评分 6.1/10 from 19913 users
◎单集片长 45分钟
◎集  数 38
◎导       演  王雷 / Lei Wang
      刘畅 / Chang Liu
      傅子恩 / Zi'en Fu
◎演       员  李小冉 / Xiaoran Li | 饰 刘淑霞
      李乃文 / Naiwen Li | 饰 王宪平
      周依然 / Yiran Zhou | 饰 王雪花
      周奇 / Qi Zhou | 饰 东方宏
      宋春丽 / Chunli Song | 饰 那人和
      孙浩 / Hao Sun | 饰 东方玉树
      齐欢 / Huan Qi | 饰 傅莹
      任帅 / Shuai Ren | 饰 杨大山
      王维唯 / Weiwei Wang | 饰 方慧
      吴思雨 / Siyu Wu | 饰 严冰
      许淇杰 / Qijie Xu | 饰 杨思宇
      张奕聪 / Yicong Zhang | 饰 王宪安
      张衣 / Yi Zhang | 饰 严肃
      王子桥 / Ziqiao Wang | 饰 王明中
      葛晓凤 / Xiaofeng Ge | 饰 陈美玲
      姚刚 / Gang Yao | 饰 厂长
      刘天佐 / Tianzuo Liu | 饰 胖洪
      宋楚炎 / Chuyan Song | 饰 林俊生
      王晴 / Qing Wang | 饰 秦晓丽
      李洛伊 / Luoyi Li | 饰 童年王雪花
      米可 / Ke Mi | 饰 童年东方宏
      刘大为 / Dawei Liu | 饰 刘淑全
      李萱 / Xuan Li | 饰 秀珍
      关丹莉 / Danli Guan | 饰 傅莹妈
      任大为 / Dawei Ren | 饰 李大爷
      张云淏 / Yunhao Zhang | 饰 童年王明中
      杨云汉 / Yunhan Yang | 饰 童年杨思宇
      王小伟 / Xiaowei Wang | 饰 音乐总监
      高佳卓 / Jiazhuo Gao | 饰 郑文
      朱美吉 / Meiji Zhu | 饰 贾青
      崔根栓 / Genshuan Cui | 饰 李副厂长
      刘立东 / Lidong Liu | 饰 秦志强
      姜瑞佳 / Ruijia Jiang | 饰 东方宏助理
      马佳玛尧 / Jiamayao Ma | 饰 李贤
      宁幻秋 / Huanqiu Ning | 饰 郑文母亲
      刘丽娟 / Lijuan Liu
◎编       剧  娟子 / JuanZi
◎制  片  人  马骏 / Jun Ma
      龚宇 / Yu Gong
◎简  介 
  二十世纪八十年代初,闳光机械厂家属院住着家庭模式各不相同的几家人,刘淑霞王宪平性格迥异但彼此包容;东方玉树傅莹日子艰难但乐在其中;杨大山方慧则过着令人羡慕的优渥生活。三个家庭在同一天诞下孩子王雪花、东方宏及杨思宇。伴随着孩子们的成长,属于他们的故事缓缓拉开帷幕,孩子们经历着关于亲情、友情和爱情的考验,而大人们也要面对关于事业、婚姻与家庭的难题。恩怨情仇将他们维系在一起。尽管生活让人跌跌撞撞,但所有人都努力的在平凡的生活中寻找属于自己不平凡的幸福。
  1. General
  2. Unique ID                      : 266444224287757573462879674961760748226 (0xC8734A7F669B9A8343A9FFB81D2602C2)
  3. Complete name                  : 我们的日子(4KHDR).mkv
  4. Format                         : Matroska
  5. Format version                 : Version 4
  6. File size                      : 3.72 GiB
  7. Duration                       : 45 min 34 s
  8. Overall bit rate               : 11.7 Mb/s
  9. Frame rate                     : 25.000 FPS
  10. Encoded date                   : 2023-08-31 08:00:06 UTC
  11. Writing application            : mkvmerge v71.1.0 ('Fortitude') 64-bit
  12. Writing library                : libebml v1.4.4 + libmatroska v1.7.1

  13. Video
  14. ID                             : 1
  15. Format                         : HEVC
  16. Format/Info                    : High Efficiency Video Coding
  17. Format profile                 : Main 10@L5@Main
  18. HDR format                     : HDR Vivid, Version 1
  19. Codec ID                       : V_MPEGH/ISO/HEVC
  20. Duration                       : 45 min 34 s
  21. Bit rate                       : 11.2 Mb/s
  22. Width                          : 3 840 pixels
  23. Height                         : 2 160 pixels
  24. Display aspect ratio           : 16:9
  25. Frame rate mode                : Constant
  26. Frame rate                     : 25.000 FPS
  27. Color space                    : YUV
  28. Chroma subsampling             : 4:2:0
  29. Bit depth                      : 10 bits
  30. Bits/(Pixel*Frame)             : 0.054
  31. Stream size                    : 3.58 GiB (96%)
  32. Default                        : Yes
  33. Forced                         : No
  34. Color range                    : Limited
  35. Color primaries                : BT.2020
  36. Transfer characteristics       : PQ
  37. Matrix coefficients            : BT.2020 non-constant
  38. Mastering display color primar : R: x=0.708000 y=0.292000, G: x=0.170000 y=0.797000, B: x=0.130000 y=0.046000, White point: x=0.312700 y=0.329000
  39. Mastering display luminance    : min: 0.0001 cd/m2, max: 1000 cd/m2
  40. Maximum Content Light Level    : 451 cd/m2
  41. Maximum Frame-Average Light Le : 160 cd/m2

  42. Audio #1
  43. ID                             : 2
  44. Format                         : E-AC-3
  45. Format/Info                    : Enhanced AC-3
  46. Commercial name                : Dolby Digital Plus
  47. Codec ID                       : A_EAC3
  48. Duration                       : 45 min 34 s
  49. Bit rate mode                  : Constant
  50. Bit rate                       : 256 kb/s
  51. Channel(s)                     : 6 channels
  52. Channel layout                 : L R C LFE Ls Rs
  53. Sampling rate                  : 48.0 kHz
  54. Frame rate                     : 31.250 FPS (1536 SPF)
  55. Compression mode               : Lossy
  56. Stream size                    : 83.4 MiB (2%)
  57. Title                          : Mandarin [DDP5.1]
  58. Language                       : Chinese
  59. Service kind                   : Complete Main
  60. Default                        : Yes
  61. Forced                         : No

  62. Audio #2
  63. ID                             : 3
  64. Format                         : AAC LC
  65. Format/Info                    : Advanced Audio Codec Low Complexity
  66. Codec ID                       : A_AAC-2
  67. Duration                       : 45 min 34 s
  68. Bit rate                       : 192 kb/s
  69. Channel(s)                     : 2 channels
  70. Channel layout                 : L R
  71. Sampling rate                  : 44.1 kHz
  72. Frame rate                     : 43.066 FPS (1024 SPF)
  73. Compression mode               : Lossy
  74. Stream size                    : 61.9 MiB (2%)
  75. Title                          : Mandarin AAC2.0
  76. Language                       : Chinese
  77. Default                        : No
  78. Forced                         : No
复制代码

购买主题 本主题需向作者支付 65 金币 才能浏览
fairyfan 发表于 2023-9-13 11:14:59 | 显示全部楼层
谢谢楼主分享

回复

使用道具 举报

alittlehero 发表于 2023-9-11 12:23:43 | 显示全部楼层
  1. [size=2][url=forum.php?mod=redirect&goto=findpost&pid=223122&ptid=18044][color=#999999]alittlehero 发表于 2023-9-11 12:20[/color][/url][/size]
  2. 谢谢楼主分享
复制代码


谢谢楼主分享
回复

使用道具 举报

alittlehero 发表于 2023-9-11 12:20:15 | 显示全部楼层

谢谢楼主分享
回复

使用道具 举报

dqxa 发表于 2023-9-11 12:15:13 | 显示全部楼层
谢谢楼主分享
回复

使用道具 举报

nzaniubi 发表于 2023-9-10 17:57:04 | 显示全部楼层
感谢楼主分享
回复

使用道具 举报

顾扣林 发表于 2023-9-10 16:43:46 | 显示全部楼层
谢谢楼主分享
回复

使用道具 举报

于海跃 发表于 2023-9-10 16:26:56 | 显示全部楼层
6666666666666666666
回复

使用道具 举报

雨辰760501 发表于 2023-9-10 16:18:46 | 显示全部楼层
感谢楼主每天辛苦发帖,谢谢楼主分享
回复

使用道具 举报

于海跃 发表于 2023-9-10 09:57:32 | 显示全部楼层
6666666666666666666666
回复

使用道具 举报

您需要登录后才可以回帖 登录 | 立即注册

本版积分规则

QQ|Archiver|手机版|小黑屋|聚音影社区

GMT+8, 2024-3-1 19:34 , Processed in 0.073981 second(s), 18 queries .

Powered by Discuz! X3.5

© 2001-2024 Discuz! Team.

快速回复 返回顶部 返回列表