找回密码
 立即注册
搜索
热搜: 2023 高码

[115云盘]死雄 第一季[2018][完结剧集][4K高码][西班牙语][内嵌简繁英字幕][49.57GB]

[复制链接]
lcw_008 发表于 2023-9-21 21:50:37 | 显示全部楼层 |阅读模式
◎译  名 死雄 第一季 / 魔人
◎片  名 Diablero
◎年  代 2018
◎产  地 墨西哥
◎类  别 恐怖
◎语  言 西班牙语
◎上映日期 2018-12-21(美国)
◎IMDb评分  6.8/10 from 2766 users
◎IMDb链接  https://www.imdb.com/title/tt7414954/
◎豆瓣评分 6.5/10 from 162 users
◎豆瓣链接   https://movie.douban.com/subject/30343071/
◎单集片长 40分钟
◎集  数 8
◎演       员  克里斯托弗·冯·乌克曼 / Christopher Von Uckermann
      霍拉西欧·加西亚·罗哈斯 / Horacio Garcia Rojas
      罗科·纳瓦 / Rocco Narva
      布莉安娜·利昂 / Briana León
◎简  介 
  一名年轻女孩在大城市失踪了,神父於是铤而走险,找上恶魔猎人和他龙蛇混杂的手下帮忙,执行一项超自然的寻人任务。
  1. General
  2. Unique ID                      : 315373448993916444215353868667401119699 (0xED42B7874BD4D574FA896C734811A7D3)
  3. Complete name                  : 死雄 第一季.mkv
  4. Format                         : Matroska
  5. Format version                 : Version 4
  6. File size                      : 6.74 GiB
  7. Duration                       : 39 min 48 s
  8. Overall bit rate               : 24.2 Mb/s
  9. Frame rate                     : 24.000 FPS
  10. Encoded date                   : 2020-03-30 21:58:22 UTC
  11. Writing application            : mkvmerge v41.0.0 ('Smarra') 64-bit
  12. Writing library                : libebml v1.3.9 + libmatroska v1.5.2

  13. Video
  14. ID                             : 1
  15. Format                         : HEVC
  16. Format/Info                    : High Efficiency Video Coding
  17. Format profile                 : Main 10@L5.1@High
  18. Codec ID                       : V_MPEGH/ISO/HEVC
  19. Duration                       : 39 min 48 s
  20. Bit rate                       : 23.1 Mb/s
  21. Width                          : 3 840 pixels
  22. Height                         : 2 160 pixels
  23. Display aspect ratio           : 16:9
  24. Frame rate mode                : Constant
  25. Frame rate                     : 24.000 FPS
  26. Color space                    : YUV
  27. Chroma subsampling             : 4:2:0
  28. Bit depth                      : 10 bits
  29. Bits/(Pixel*Frame)             : 0.116
  30. Stream size                    : 6.43 GiB (95%)
  31. Writing library                : x265 3.3+2-gbe2d82093:[Windows][MSVC 1924][64 bit] 10bit
  32. Default                        : Yes
  33. Forced                         : No

  34. Audio
  35. ID                             : 2
  36. Format                         : E-AC-3
  37. Format/Info                    : Enhanced AC-3
  38. Commercial name                : Dolby Digital Plus
  39. Codec ID                       : A_EAC3
  40. Duration                       : 39 min 48 s
  41. Bit rate mode                  : Constant
  42. Bit rate                       : 640 kb/s
  43. Channel(s)                     : 6 channels
  44. Channel layout                 : L R C LFE Ls Rs
  45. Sampling rate                  : 48.0 kHz
  46. Frame rate                     : 31.250 FPS (1536 SPF)
  47. Compression mode               : Lossy
  48. Stream size                    : 182 MiB (3%)
  49. Title                          : Spanish
  50. Language                       : Spanish
  51. Service kind                   : Complete Main
  52. Default                        : No
  53. Forced                         : No

  54. Text #1
  55. ID                             : 3
  56. Format                         : UTF-8
  57. Codec ID                       : S_TEXT/UTF8
  58. Codec ID/Info                  : UTF-8 Plain Text
  59. Title                          : English [Full]
  60. Language                       : English
  61. Default                        : No
  62. Forced                         : No

  63. Text #2
  64. ID                             : 4
  65. Format                         : UTF-8
  66. Codec ID                       : S_TEXT/UTF8
  67. Codec ID/Info                  : UTF-8 Plain Text
  68. Title                          : English [SDH]
  69. Language                       : English
  70. Default                        : No
  71. Forced                         : No

  72. Text #3
  73. ID                             : 5
  74. Format                         : UTF-8
  75. Codec ID                       : S_TEXT/UTF8
  76. Codec ID/Info                  : UTF-8 Plain Text
  77. Title                          : Spanish [Forced]
  78. Language                       : Spanish
  79. Default                        : No
  80. Forced                         : Yes

  81. Text #4
  82. ID                             : 6
  83. Format                         : UTF-8
  84. Codec ID                       : S_TEXT/UTF8
  85. Codec ID/Info                  : UTF-8 Plain Text
  86. Title                          : Spanish [SDH]
  87. Language                       : Spanish
  88. Default                        : No
  89. Forced                         : No

  90. Text #25
  91. ID                             : 27
  92. Format                         : UTF-8
  93. Codec ID                       : S_TEXT/UTF8
  94. Codec ID/Info                  : UTF-8 Plain Text
  95. Title                          : Chinese (Simplified) [Full]
  96. Language                       : Chinese
  97. Default                        : No
  98. Forced                         : No

  99. Text #26
  100. ID                             : 28
  101. Format                         : UTF-8
  102. Codec ID                       : S_TEXT/UTF8
  103. Codec ID/Info                  : UTF-8 Plain Text
  104. Title                          : Chinese (Traditional) [Full]
  105. Language                       : Chinese
  106. Default                        : No
  107. Forced                         : No
复制代码


购买主题 本主题需向作者支付 25 金币 才能浏览
wjsdubob 发表于 2023-9-25 04:12:49 | 显示全部楼层
怀旧香港电影文化。。。。。。。。
回复

使用道具 举报

wjsdubob 发表于 2023-9-24 13:10:58 | 显示全部楼层
怀旧香港电影文化。。。。。。。。。。
回复

使用道具 举报

行者47 发表于 2023-9-22 19:39:11 | 显示全部楼层
谢谢分享
回复

使用道具 举报

alittlehero 发表于 2023-9-22 15:07:51 | 显示全部楼层
  1. [size=2][url=forum.php?mod=redirect&goto=findpost&pid=225125&ptid=18132][color=#999999]alittlehero 发表于 2023-9-22 13:21[/color][/url][/size]
  2. 谢谢楼主分享
复制代码

谢谢楼主分享
回复

使用道具 举报

alittlehero 发表于 2023-9-22 13:21:44 | 显示全部楼层

谢谢楼主分享
回复

使用道具 举报

顾扣林 发表于 2023-9-22 08:52:59 | 显示全部楼层
谢谢楼主分享
回复

使用道具 举报

hwm54803 发表于 2023-9-22 06:30:50 | 显示全部楼层
谢谢楼主分享
回复

使用道具 举报

dqxa 发表于 2023-9-22 05:49:45 | 显示全部楼层
谢谢楼主分享
回复

使用道具 举报

您需要登录后才可以回帖 登录 | 立即注册

本版积分规则

QQ|Archiver|手机版|小黑屋|聚音影社区

GMT+8, 2024-6-17 11:19 , Processed in 0.092665 second(s), 18 queries .

Powered by Discuz! X3.5

© 2001-2024 Discuz! Team.

快速回复 返回顶部 返回列表