找回密码
 立即注册
搜索

[115云盘]好想做一次 第二季[2021][完结剧集][4KHDR][英语][内嵌简繁英字幕][38.85GB]

[复制链接]
lcw_008 发表于 2023-11-19 20:12:13 | 显示全部楼层 |阅读模式


◎译  名 好想做一次 第二季 / 我从来没有
◎片  名 Never Have I Ever Season 2
◎年  代 2021
◎产  地 美国
◎类  别 喜剧
◎语  言 英语
◎上映日期 2021-07-15(美国)
◎IMDb评分  7.9/10 from 76256 users
◎IMDb链接  https://www.imdb.com/title/tt10062292/
◎豆瓣评分 8.3/10 from 29678 users
◎豆瓣链接   https://movie.douban.com/subject/35082407/
◎单集片长 30分钟
◎集  数 10
◎导       演  卡比尔·阿克塔 / Kabir Akhtar
      莉娜·汗 / Lena Khan
      玛姬·盖瑞 / Maggie Geary
      特斯塔姆·莎佩罗 / Tristram Shapeero
      阿奴·瓦利亚 / Anu Valia
      克莱尔·斯坎伦 / Claire Scanlon
      朗·费希尔 / Lang Fisher
◎演       员  麦特里伊·拉玛克里斯南 / Maitreyi Ramakrishnan | 饰 Devi Vishwakumar
      芮查·莫佳妮 / Richa Moorjani | 饰 Kamala
      嘉伦·李维森 / Jaren Lewison | 饰 Ben Gross
      达伦·巴内特 / Darren Barnet | 饰 Paxton Hall-Yoshida
      李·罗德里格斯 / Lee Rodriguez | 饰 Fabiola Torres
      雷蒙娜·杨 / Ramona Young | 饰 Eleanor Wong
      约翰·麦肯罗 / John McEnroe | 配 John McEnroe
      普娜·贾甘纳坦 / Poorna Jagannathan | 饰 Nalini Vishwakumar
      梅根·苏丽 / Megan Suri | 饰 Aneesa
      亚当·沙皮罗 / Adam Shapiro | 饰 Mr. Shapiro
      水源士郎 / Tohoru Masamune | 饰 Kevin Hall-Yoshida
      凯利·苏利文 / Kelly Sullivan | 饰 June Hall-Yoshida
      莉莉·D·摩尔 / Lily D Moore | 饰 Rebecca Hall-Yoshida
      本杰明·诺里斯 / Benjamin Norris | 饰 Trent Harrison
      兰吉塔·查克拉瓦蒂 / Ranjita Chakravarty | 饰 Nirmala
      森德希·拉玛莫西 / Sendhil Ramamurthy | 饰 Mohan Vishwakumar
      迪诺·佩特拉 / Dino Petrera | 饰 Jonah Sharpe
      鲁西·科塔 / Rushi Kota | 饰 Prashant
      克里斯蒂娜·卡尔切纳 / Christina Kartchner | 饰 Eve
      P·J·伯恩 / P.J. Byrne | 饰 Evan
      安德鲁·T·李 / Andrew T. Lee | 饰 Paul Wong
      科曼 / Common | 饰 Dr. Chris Jackson
      马丁·马丁内兹 / Martin Martinez | 饰 Oliver Martinez
      乌特卡什·安邦德卡尔 / Utkarsh Ambudkar | 饰 Manish Kulkarni
      泰勒·阿尔瓦雷兹 / Tyler Alvarez | 饰 Malcolm Stone
      吉吉·哈迪德 / Gigi Hadid | 配 Gigi Hadid
      安迪·萨姆伯格 / Andy Samberg | 配 Andy Samberg
      罗伊·帕特尔 / Royal Patel  | 饰 Young Devi
      希丽·海勒马特 / Siri Hiremath  | 饰 Tween Devi
      迪伦· / 邰 Dylan Thai | 饰 Eddie Tan
◎编       剧  敏迪·卡灵 / Mindy Kaling
      阿克沙拉·塞卡 / Akshara Sekar
      阿米娜·穆尼尔 / Amina Munir
      亚伦·盖瑞 / Aaron Geary
      本·斯坦纳 / Ben Steiner
      玛丽娜·科肯伯格 / Marina Cockenberg
      万斯·斯特林格 / Vance Stringer
      阿斯米塔·帕兰杰普 / Asmita Paranjape
      克里斯蒂娜·赫伊尔姆 / Christina Hjelm
      大卫·金 / David King
      克里斯·施莱彻 / Chris Schleicher
◎简  介 
  一个宅女,两个男朋友,江湖从此多事。《好想做一次》隆重回归,推出第 2 季,7 月 15 日在 Netflix 上线。
  1. General
  2. Unique ID                      : 256621937914728601944303250420172254528 (0xC10F9663E3423E0EFC745B83D2BAED40)
  3. Complete name                  : 好想做一次 第二季.mkv
  4. Format                         : Matroska
  5. Format version                 : Version 4
  6. File size                      : 3.70 GiB
  7. Duration                       : 28 min 40 s
  8. Overall bit rate               : 18.5 Mb/s
  9. Frame rate                     : 23.976 FPS

  10. Video
  11. ID                             : 1
  12. Format                         : HEVC
  13. Format/Info                    : High Efficiency Video Coding
  14. Format profile                 : Main 10@L5@Main
  15. HDR format                     : Dolby Vision, Version 1.0, dvhe.08.06, BL+RPU, HDR10 compatible / SMPTE ST 2086, HDR10 compatible
  16. Codec ID                       : V_MPEGH/ISO/HEVC
  17. Duration                       : 27 min 12 s
  18. Bit rate                       : 18.8 Mb/s
  19. Width                          : 3 840 pixels
  20. Height                         : 2 160 pixels
  21. Display aspect ratio           : 16:9
  22. Frame rate mode                : Constant
  23. Frame rate                     : 23.976 (24000/1001) FPS
  24. Color space                    : YUV
  25. Chroma subsampling             : 4:2:0 (Type 2)
  26. Bit depth                      : 10 bits
  27. Bits/(Pixel*Frame)             : 0.094
  28. Stream size                    : 3.57 GiB (96%)
  29. Default                        : Yes
  30. Forced                         : No
  31. Color range                    : Limited
  32. Color primaries                : BT.2020
  33. Transfer characteristics       : PQ
  34. Matrix coefficients            : BT.2020 non-constant
  35. Mastering display color primar : Display P3
  36. Mastering display luminance    : min: 0.0050 cd/m2, max: 4000 cd/m2
  37. Maximum Content Light Level    : 1314 cd/m2
  38. Maximum Frame-Average Light Le : 154 cd/m2

  39. Audio
  40. ID                             : 2
  41. Format                         : E-AC-3
  42. Format/Info                    : Enhanced AC-3
  43. Commercial name                : Dolby Digital Plus
  44. Codec ID                       : A_EAC3
  45. Duration                       : 28 min 40 s
  46. Bit rate mode                  : Constant
  47. Bit rate                       : 640 kb/s
  48. Channel(s)                     : 6 channels
  49. Channel layout                 : L R C LFE Ls Rs
  50. Sampling rate                  : 48.0 kHz
  51. Frame rate                     : 31.250 FPS (1536 SPF)
  52. Compression mode               : Lossy
  53. Stream size                    : 131 MiB (3%)
  54. Language                       : English
  55. Service kind                   : Complete Main
  56. Default                        : Yes
  57. Forced                         : No

  58. Text #1
  59. ID                             : 3
  60. Format                         : UTF-8
  61. Codec ID                       : S_TEXT/UTF8
  62. Codec ID/Info                  : UTF-8 Plain Text
  63. Duration                       : 26 min 40 s
  64. Bit rate                       : 109 b/s
  65. Frame rate                     : 0.340 FPS
  66. Count of elements              : 545
  67. Stream size                    : 21.4 KiB (0%)
  68. Language                       : English
  69. Default                        : No
  70. Forced                         : No

  71. Text #33
  72. ID                             : 35
  73. Format                         : UTF-8
  74. Codec ID                       : S_TEXT/UTF8
  75. Codec ID/Info                  : UTF-8 Plain Text
  76. Duration                       : 26 min 53 s
  77. Bit rate                       : 104 b/s
  78. Frame rate                     : 0.319 FPS
  79. Count of elements              : 515
  80. Stream size                    : 20.6 KiB (0%)
  81. Title                          : Simplified
  82. Language                       : Chinese (Simplified)
  83. Default                        : No
  84. Forced                         : No

  85. Text #34
  86. ID                             : 36
  87. Format                         : UTF-8
  88. Codec ID                       : S_TEXT/UTF8
  89. Codec ID/Info                  : UTF-8 Plain Text
  90. Duration                       : 26 min 53 s
  91. Bit rate                       : 96 b/s
  92. Frame rate                     : 0.328 FPS
  93. Count of elements              : 529
  94. Stream size                    : 19.0 KiB (0%)
  95. Title                          : Traditional
  96. Language                       : Chinese (Traditional)
  97. Default                        : No
  98. Forced                         : No
复制代码


购买主题 本主题需向作者支付 20 金币 才能浏览
dqxa 发表于 2023-11-20 05:25:03 | 显示全部楼层
谢谢楼主分享
回复

使用道具 举报

hwm54803 发表于 2023-11-20 06:42:47 | 显示全部楼层
谢谢楼主分享
回复

使用道具 举报

顾扣林 发表于 2023-11-20 09:16:32 | 显示全部楼层
谢谢楼主分享
回复

使用道具 举报

您需要登录后才可以回帖 登录 | 立即注册

本版积分规则

QQ|Archiver|手机版|小黑屋|聚音影社区

GMT+8, 2023-12-8 14:42 , Processed in 0.021378 second(s), 17 queries .

Powered by Discuz! X3.5

© 2001-2023 Discuz! Team.

快速回复 返回顶部 返回列表