找回密码
 立即注册
搜索
热搜: 2023 高码

[115云盘]死神 千年血战篇(第1-2季)[2022-2023][完结剧集][4K][日语][内嵌简繁英字幕][50.48GB]

[复制链接]
lcw_008 发表于 2023-11-19 21:37:19 | 显示全部楼层 |阅读模式


◎译  名 死神 千年血战篇(第1-2季) / 境界 新篇章 / BLEACH 千年血战篇 / Bleach: Thousand-Year Blood War
◎片  名 ブリーチ 千年血戦篇
◎年  代 2022
◎产  地 日本
◎类  别 动作 / 动画 / 奇幻 / 冒险
◎语  言 日语
◎上映日期 2022-10-10(日本/中国大陆)
◎IMDb评分  9/10 from 32182 users(第1季)
◎IMDb评分  8.7/10 from 3891 users(第2季)
◎IMDb链接  https://www.imdb.com/title/tt14986406/(第1季)
◎IMDb链接 https://www.imdb.com/title/tt27876700/(第2季)
◎豆瓣评分 9.1/10 from 29634 users(第1季)
◎豆瓣评分 9.1/10 from 9768 users(第2季)
◎豆瓣链接   https://movie.douban.com/subject/35001432/(第1季)
◎豆瓣链接 https://douban.com/subject/36189163/(第2季)
◎单集片长 24分钟
◎集  数 29(第1季1-13集,第2季14-26集+3集特别篇)
◎导       演  田口智久 / Tomohisa Taguchi
◎演       员  森田成一 / Masakazu Morita
      折笠富美子 / Fumiko Orikasa
      置鲇龙太郎 / Ryôtarô Okiayu
      杉山纪彰 / Noriaki Sugiyama
      伊藤健太郎 / Itou Kentarou
      松冈由贵 / Yuki Matsuoka
      朴璐美 / Romi Park
      菅生隆之 / Takayuki Sugo
      速水奖 / Shô Hayami
      桧山修之 / Nobuyuki Hiyama
      三木真一郎 / Shinichirô Miki
      安元洋贵 / Hiroki Yasumoto
      小西克幸 / Katsuyuki Konishi
      雪野五月 / Satsuki Yukino
      小野坂昌也 / Masaya Onosaka
      高冈瓶瓶 / Binbin Takaoka
      桑岛法子 / Houko Kuwashima
      樫井笙人 / Kashii Shouto
      久川绫 / Aya Hisakawa
      稻田彻 / Tetsu Inada
      大塚明夫 / Akio Ôtsuka
      杉田智和 / Tomokazu Sugita
      中尾隆圣 / Ryûsei Nakao
      立木文彦 / Fumihiko Tachiki
      石川英郎 / Hideo Ishikawa
      楠见尚己 / Naomi Kusumi
      上田耀司 / Yoji Ueda
      志村知幸 / Tomoyuki Shimura
      佐藤利奈 / Rina Satou
      恒松步 / Ayumi Tsunematsu
      梅原裕一郎 / Yuichiro Umehara
      武内骏辅 / Shunsuke Takeuchi
      竹达彩奈 / Ayana Taketatsu
      小野友树 / Yuuki Ono
      内山夕实 / Yumi Uchiyama
      花江夏树 / Natsuki Hanae
      日野聪 / Satoshi Hino
      山寺宏一 / Kôichi Yamadera
      生天目仁美 / Hitomi Nabatame
      熊谷健太郎 / Kentaro Kumagai
      青山穰 / Yutaka Aoyama
      高桥研二 / Takahashi Kenji
      甲斐田裕子 / Yûko Kaida
      真殿光昭 / Mitsuaki Madono
◎编       剧  久保带人 / Tite Kubo
      田口智久 / Tomohisa Taguchi
      平松正树 / Masaki Hiramatsu
◎音       乐  泽野弘之 / Hiroyuki Sawano
      鹭巢诗郎 / Shirô Sagisu
◎动       画  桥本敬史 / Hashimoto Takashi
◎简  介 
  第1季,在一次邂逅中得到死神的力量而成为“代理死神”的黑崎一护,
  被卷入死在现世的魂魄所聚集的地方——尸魂界的动乱中,在激烈的战斗中
  和同伴一起也成长了很多。
  因为一护的生活,所生活的空座町发生了异变。
  新的死神和新的敌人的出现,以及呼救声。
  一护再次拿起斩魄刀,踏上战场。
  另一方面,在尸魂界观测到现世中的虚突然连续消失
  被引导到这片土地的灵魂所生活的流魂街居民们发生了失踪
  并且死神们驻守的灵屋・瀞灵廷被贼军袭击。
  贼军的真实身份是灭却师始祖・友哈巴赫所率领的“无形帝国”。
  “无形帝国”向死神们宣战。
  5天后,尸魂界被“无形帝国”歼灭
  历经千年之久死神们所背负的因缘。
  那个宿命和隐藏的真相终于被揭开。
  一切都走向终结。
  黑崎一护,最后的战斗开始了——
  第2季,首次与友哈巴赫率领的星十字骑士团交锋后,尸魂界伤亡惨重,黑崎一护在零番队的帮助下前往灵王宫并最终炼出属于自己的斩魄刀“斩月”。与此同时,为了提升实力,其余“死神”也在瀞灵廷进行着自己的修炼,然而第二次交锋很快来袭,为了守护同伴和正义,护廷十三队热血迎战!
  1. General
  2. Unique ID                      : 120104883525470574792630971793607366660 (0x5A5B5BF23AD8CAC87DBDEAAFFB621804)
  3. Complete name                  : 死神 千年血战篇(第1-2季).mkv
  4. Format                         : Matroska
  5. Format version                 : Version 4
  6. File size                      : 1.94 GiB
  7. Duration                       : 24 min 9 s
  8. Overall bit rate               : 11.5 Mb/s
  9. Frame rate                     : 23.976 FPS
  10. Encoded date                   : 2022-10-11 00:08:29 UTC
  11. Writing application            : mkvmerge v70.0.0 ('Caught A Lite Sneeze') 64-bit
  12. Writing library                : libebml v1.4.2 + libmatroska v1.6.4

  13. Video
  14. ID                             : 1
  15. Format                         : AVC
  16. Format/Info                    : Advanced Video Codec
  17. Format profile                 : High@L5.1
  18. Format settings                : CABAC / 4 Ref Frames
  19. Format settings, CABAC         : Yes
  20. Format settings, Reference fra : 4 frames
  21. Codec ID                       : V_MPEG4/ISO/AVC
  22. Duration                       : 24 min 9 s
  23. Bit rate                       : 11.2 Mb/s
  24. Width                          : 3 840 pixels
  25. Height                         : 2 160 pixels
  26. Display aspect ratio           : 16:9
  27. Frame rate mode                : Constant
  28. Frame rate                     : 23.976 (23976/1000) FPS
  29. Color space                    : YUV
  30. Chroma subsampling             : 4:2:0
  31. Bit depth                      : 8 bits
  32. Scan type                      : Progressive
  33. Bits/(Pixel*Frame)             : 0.056
  34. Stream size                    : 1.89 GiB (97%)
  35. Title                          : Japanese
  36. Writing library                : BiliBili H264 Encoder v1.0
  37. Language                       : Japanese
  38. Default                        : Yes
  39. Forced                         : No
  40. Color range                    : Limited
  41. Color primaries                : BT.709
  42. Transfer characteristics       : BT.709
  43. Matrix coefficients            : BT.709

  44. Audio
  45. ID                             : 2
  46. Format                         : AAC LC
  47. Format/Info                    : Advanced Audio Codec Low Complexity
  48. Codec ID                       : A_AAC-2
  49. Duration                       : 24 min 9 s
  50. Bit rate                       : 315 kb/s
  51. Channel(s)                     : 2 channels
  52. Channel layout                 : L R
  53. Sampling rate                  : 48.0 kHz
  54. Frame rate                     : 46.875 FPS (1024 SPF)
  55. Compression mode               : Lossy
  56. Stream size                    : 54.4 MiB (3%)
  57. Title                          : Japanese
  58. Language                       : Japanese
  59. Default                        : Yes
  60. Forced                         : No

  61. Text #1
  62. ID                             : 3
  63. Format                         : UTF-8
  64. Codec ID                       : S_TEXT/UTF8
  65. Codec ID/Info                  : UTF-8 Plain Text
  66. Duration                       : 23 min 54 s
  67. Bit rate                       : 45 b/s
  68. Frame rate                     : 0.224 FPS
  69. Count of elements              : 322
  70. Stream size                    : 8.03 KiB (0%)
  71. Title                          : Chinese Simplified
  72. Language                       : Chinese (Simplified)
  73. Default                        : Yes
  74. Forced                         : No

  75. Text #2
  76. ID                             : 4
  77. Format                         : UTF-8
  78. Codec ID                       : S_TEXT/UTF8
  79. Codec ID/Info                  : UTF-8 Plain Text
  80. Duration                       : 23 min 54 s
  81. Bit rate                       : 45 b/s
  82. Frame rate                     : 0.224 FPS
  83. Count of elements              : 322
  84. Stream size                    : 8.03 KiB (0%)
  85. Title                          : Chinese Traditional
  86. Language                       : Chinese (Traditional)
  87. Default                        : Yes
  88. Forced                         : No

  89. Text #3
  90. ID                             : 5
  91. Format                         : UTF-8
  92. Codec ID                       : S_TEXT/UTF8
  93. Codec ID/Info                  : UTF-8 Plain Text
  94. Duration                       : 23 min 54 s
  95. Bit rate                       : 51 b/s
  96. Frame rate                     : 0.221 FPS
  97. Count of elements              : 317
  98. Stream size                    : 8.95 KiB (0%)
  99. Language                       : English
  100. Default                        : No
  101. Forced                         : No
复制代码


购买主题 已有 1 人购买  本主题需向作者支付 30 金币 才能浏览
dqxa 发表于 2023-11-20 05:19:58 | 显示全部楼层
谢谢楼主分享
回复

使用道具 举报

hwm54803 发表于 2023-11-20 06:37:54 | 显示全部楼层
谢谢楼主分享
回复

使用道具 举报

顾扣林 发表于 2023-11-20 09:35:04 | 显示全部楼层
谢谢楼主分享
回复

使用道具 举报

alittlehero 发表于 2023-11-20 15:26:44 | 显示全部楼层
谢谢楼主分享
回复

使用道具 举报

alittlehero 发表于 2023-11-20 15:28:56 | 显示全部楼层
  1. [size=2][url=forum.php?mod=redirect&goto=findpost&pid=237687&ptid=19233][color=#999999]alittlehero 发表于 2023-11-20 15:26[/color][/url][/size]
  2. 谢谢楼主分享
复制代码

谢谢楼主分享
回复

使用道具 举报

1583060922 发表于 2024-2-2 00:59:38 | 显示全部楼层
谢谢楼主分享
回复

使用道具 举报

您需要登录后才可以回帖 登录 | 立即注册

本版积分规则

QQ|Archiver|手机版|小黑屋|聚音影社区

GMT+8, 2024-5-21 02:46 , Processed in 0.073771 second(s), 17 queries .

Powered by Discuz! X3.5

© 2001-2024 Discuz! Team.

快速回复 返回顶部 返回列表