找回密码
 立即注册
搜索

[115云盘]眼镜蛇 第三季[2021][完结剧集][4K高码][英语][内嵌简繁英字幕][48.51GB]

[复制链接]
lcw_008 发表于 2023-11-20 00:14:07 | 显示全部楼层 |阅读模式


◎译  名 眼镜蛇 第三季 / 眼镜蛇道馆
◎片  名 Cobra Kai Season 3
◎年  代 2021
◎产  地 美国
◎类  别 剧情 / 喜剧 / 动作 / 运动
◎语  言 英语
◎上映日期 2021-01-01(美国)
◎IMDb评分  8/10 from 4024 users
◎IMDb链接  https://www.imdb.com/title/tt7221388/
◎豆瓣评分 7.9/10 from 411 users
◎豆瓣链接   https://movie.douban.com/subject/35083998/
◎单集片长 30分钟
◎集  数 10
◎演       员  克里斯·加恩 / Chris Gann
      拉尔夫·马基奥 / Ralph Macchio
      索洛·马里多纳 / Xolo Maridueña
      里克·佩雷斯 / Rick Perez
      肖恩·韦斯顿·萨克 / Shawn Weston Thacker
      威廉.泽布卡 / William Zabka
      艾米丽·玛丽·帕尔默 / Emily Marie Palmer | 饰 Betsy
      萝丝·比安科 / Rose Bianco | 饰 Rosa
      Vanessa Rubio Vanessa Rubio
      伊丽莎白·苏 / Elisabeth Shue
◎编       剧  乔什·贺德 / Josh Heald
      乔恩·赫维兹 / Jon Hurwitz
      海登·施拉兹伯格 / Hayden Schlossberg
◎简  介 
  眼镜蛇道馆由新师父接掌,三方恩怨跃上台面。 旧仇也如同眼镜蛇道馆一般,永远不死。
◎获奖情况 
      第73届黄金时段艾美奖 (2021)
  喜剧类 最佳剧集(提名)
      第28届美国演员工会奖 (2022)
  剧集最佳特技群戏(提名)
  1. General
  2. Unique ID                      : 35377105167220361608673333013629090147 (0x1A9D61F34D0E3821FD3749736607B963)
  3. Complete name                  : 眼镜蛇 第三季.mkv
  4. Format                         : Matroska
  5. Format version                 : Version 4
  6. File size                      : 4.33 GiB
  7. Duration                       : 31 min 12 s
  8. Overall bit rate               : 19.9 Mb/s
  9. Frame rate                     : 23.976 FPS
  10. Encoded date                   : 2021-01-04 18:06:42 UTC
  11. Writing application            : mkvmerge v44.0.0 ('Domino') 64-bit
  12. Writing library                : libebml v1.3.10 + libmatroska v1.5.2

  13. Video
  14. ID                             : 1
  15. Format                         : HEVC
  16. Format/Info                    : High Efficiency Video Coding
  17. Format profile                 : Main 10@L5.1@High
  18. Codec ID                       : V_MPEGH/ISO/HEVC
  19. Duration                       : 31 min 12 s
  20. Bit rate                       : 19.2 Mb/s
  21. Width                          : 3 840 pixels
  22. Height                         : 2 160 pixels
  23. Display aspect ratio           : 16:9
  24. Frame rate mode                : Constant
  25. Frame rate                     : 23.976 (24000/1001) FPS
  26. Color space                    : YUV
  27. Chroma subsampling             : 4:2:0
  28. Bit depth                      : 10 bits
  29. Bits/(Pixel*Frame)             : 0.097
  30. Stream size                    : 4.19 GiB (97%)
  31. Writing library                : x265 3.4+26-ga82c6c7a7:[Windows][GCC 10.2.1][64 bit] 10bit
  32. Default                        : Yes
  33. Forced                         : No
  34. Color range                    : Limited
  35. Color primaries                : BT.709
  36. Transfer characteristics       : BT.709
  37. Matrix coefficients            : BT.709

  38. Audio
  39. ID                             : 2
  40. Format                         : E-AC-3
  41. Format/Info                    : Enhanced AC-3
  42. Commercial name                : Dolby Digital Plus
  43. Codec ID                       : A_EAC3
  44. Duration                       : 31 min 12 s
  45. Bit rate mode                  : Constant
  46. Bit rate                       : 640 kb/s
  47. Channel(s)                     : 6 channels
  48. Channel layout                 : L R C LFE Ls Rs
  49. Sampling rate                  : 48.0 kHz
  50. Frame rate                     : 31.250 FPS (1536 SPF)
  51. Compression mode               : Lossy
  52. Stream size                    : 143 MiB (3%)
  53. Language                       : English
  54. Service kind                   : Complete Main
  55. Default                        : Yes
  56. Forced                         : No

  57. Text #1
  58. ID                             : 3
  59. Format                         : UTF-8
  60. Codec ID                       : S_TEXT/UTF8
  61. Codec ID/Info                  : UTF-8 Plain Text
  62. Duration                       : 12 min 54 s
  63. Bit rate                       : 4 b/s
  64. Frame rate                     : 0.019 FPS
  65. Count of elements              : 15
  66. Stream size                    : 436 Bytes (0%)
  67. Title                          : Forced
  68. Language                       : English
  69. Default                        : Yes
  70. Forced                         : Yes

  71. Text #31
  72. ID                             : 33
  73. Format                         : UTF-8
  74. Codec ID                       : S_TEXT/UTF8
  75. Codec ID/Info                  : UTF-8 Plain Text
  76. Duration                       : 29 min 25 s
  77. Bit rate                       : 62 b/s
  78. Frame rate                     : 0.225 FPS
  79. Count of elements              : 397
  80. Stream size                    : 13.4 KiB (0%)
  81. Title                          : Simplified
  82. Language                       : Chinese
  83. Default                        : No
  84. Forced                         : No

  85. Text #32
  86. ID                             : 34
  87. Format                         : UTF-8
  88. Codec ID                       : S_TEXT/UTF8
  89. Codec ID/Info                  : UTF-8 Plain Text
  90. Duration                       : 29 min 25 s
  91. Bit rate                       : 57 b/s
  92. Frame rate                     : 0.247 FPS
  93. Count of elements              : 436
  94. Stream size                    : 12.3 KiB (0%)
  95. Title                          : Traditional
  96. Language                       : Chinese
  97. Default                        : No
  98. Forced                         : No
复制代码


购买主题 本主题需向作者支付 25 金币 才能浏览
dqxa 发表于 2023-11-20 05:09:28 | 显示全部楼层
谢谢楼主分享
回复

使用道具 举报

hwm54803 发表于 2023-11-20 06:21:07 | 显示全部楼层
谢谢楼主分享
回复

使用道具 举报

顾扣林 发表于 2023-11-20 10:01:28 | 显示全部楼层
谢谢楼主分享
回复

使用道具 举报

alittlehero 发表于 2023-11-20 12:32:27 | 显示全部楼层
谢谢楼主分享
回复

使用道具 举报

alittlehero 发表于 2023-11-20 12:34:57 | 显示全部楼层

谢谢楼主分享
回复

使用道具 举报

v3344560 发表于 2023-11-20 18:18:15 来自手机 | 显示全部楼层
谢谢楼主分享
回复

使用道具 举报

雨辰760501 发表于 2023-11-20 19:52:52 | 显示全部楼层
感谢楼主每天辛苦发帖分享!
回复

使用道具 举报

您需要登录后才可以回帖 登录 | 立即注册

本版积分规则

QQ|Archiver|手机版|小黑屋|聚音影社区

GMT+8, 2023-12-8 15:11 , Processed in 0.021551 second(s), 17 queries .

Powered by Discuz! X3.5

© 2001-2023 Discuz! Team.

快速回复 返回顶部 返回列表