找回密码
 立即注册
搜索
热搜: 2023 高码

[115云盘]布里奇顿 第二季[2022][完结剧集][4KHDR][英语][内嵌简繁英字幕][63.91GB]

[复制链接]
lcw_008 发表于 2023-11-20 00:40:41 | 显示全部楼层 |阅读模式


◎译  名 布里奇顿 第二季 / 柏捷顿家族:名门韵事(港/台) / 布里杰顿家族
◎片  名 Bridgerton Season 2
◎年  代 2022
◎产  地 美国
◎类  别 剧情 / 爱情
◎语  言 英语
◎上映日期 2022-03-25(美国)
◎IMDb评分  7.4/10 from 159708 users
◎IMDb链接  https://www.imdb.com/title/tt8740790/
◎豆瓣评分 6.4/10 from 5305 users
◎豆瓣链接   https://movie.douban.com/subject/35337069/
◎单集片长 60分钟
◎集  数 8
◎导       演  翠西亚·布洛克 / Tricia Brock
      亚历克斯·皮莱 / Alex Pillai
      汤姆·维里卡 / Tom Verica
      谢丽尔·邓耶 / Cheryl Dunye
      朱莉·安妮·罗宾逊 / Julie Anne Robinson
◎演       员  乔纳森·贝利 / Jonathan Bailey | 饰 Anthony Bridgerton
      西蒙娜·阿什利 / Simone Ashley | 饰 Kate Sharma
      查瑞莎·钱德兰 / Charithra Chandran | 饰 Edwina Sharma
      朱莉·安德鲁斯 / Julie Andrews | 配 Lady Whistledown
      果尔达·罗斯乌威尔 / Golda Rosheuvel | 饰 Queen Charlotte
      阿卓艾·安多 / Adjoa Andoh | 饰 Lady Danbury
      菲比·黛内芙 / Phoebe Dynevor | 饰 Daphne Bridgerton
      鲁丝·吉梅尔 / Ruth Gemmell | 饰 Lady Violet Bridgerton
      卢克·汤普森 / Luke Thompson | 饰 Benedict Bridgerton
      卢克·牛顿 / Luke Newton | 饰 Colin Bridgerton
      鲁珀特·伊文斯 / Rupert Evans | 饰 Edmund Bridgerton
      克劳迪亚·杰西 / Claudia Jessie | 饰 Eloise Bridgerton
      鲁比·斯托克斯 / Ruby Stokes | 饰 Francesca Bridgerton
      弗洛伦斯·亨特 / Florence Hunt | 饰 Hyacinth Bridgerton
      威尔·蒂尔斯顿 / Will Tilston | 饰 Gregory Bridgerton
      谢莉·康恩 / Shelley Conn | 饰 Mary Sharma
      洛琳·艾什本 / Lorraine Ashbourne | 饰 Mrs. Varley
      哈丽特·肯斯 / Harriet Cains | 饰 Philipa Featherington
      贝西·卡特 / Bessie Carter | 饰 Prudence Featherington
      妮可拉·考夫兰 / Nicola Coughlan | 饰 Penelope Featherington
      波利·沃克 / Polly Walker | 饰 Portia Featherington
      乔安娜·波宾 / Joanna Bobin | 饰 Lady Cowper
      杰西卡·马德森 / Jessica Madsen | 饰 Cressida Cowper
      卡拉姆·林奇 / Calam Lynch | 饰 Theo Sharpe
      鲁伯特·杨 / Rupert Young | 饰 Lord Jack Featherington
      鲁比·巴克 / Ruby Barker | 饰 Lady Marina Crane
      克里斯·弗尔顿 / Chris Fulton | 饰 Sir Phillip Crane
      马丁斯·因汉贝 / Martins Imhangbe | 饰 Will Mondrich
      艾玛·娜奥米 / Emma Naomi | 饰 Alice Mondrich
      罗恩·麦克唐纳 / Lorn Macdonald | 饰 Albion Finch
      罗伯特·威尔福特 / Robert Wilfort | 饰 Mr. Finch
      露辛达·雷克斯 / Lucinda Raikes | 饰 Mrs. Finch
      凯瑟伦·德莱斯黛尔 / Kathryn Drysdale | 饰 Genevieve Delacroix
      贝利·帕特里克 / Bailey Patrick | 饰 Mister Harris
      伊恩·阿塔德 / Ian Attard | 饰 Nelson
      阿南·德赛-巴罗基亚 / Anand Desai-Barochia | 饰 Lord Hardy
      奥利·希金森 / Oli Higginson | 饰 Footman John
      多米尼克·科尔曼 / Dominic Coleman | 饰 Lord Cowper
      卡雅·陈 / Kaja Chan | 饰 Miss Weston / Nervous Deb
       Theresa Godly | 饰 Lady Hood
       Sherise Blackman | 饰 Blue Stocking Lady
       George Watkins | 饰 Lord Morrison
       Melissa Advani | 饰 Lady Eaton
       Sam Frenchum | 饰 Mr. Thomas Dorset
       Bert Seymour | 饰 Lord Fife
       Olivia Barrowclough | 饰 Lady Abigail Evans
      休·萨克斯 / Hugh Sachs | 饰 Brimsley
      安德洛墨达·戈弗雷 / Andromeda Godfrey | 饰 Fashionable Mama 1
       Sarah Junillon | 饰 Eloise's Maid
      杰拉尔丁·亚力山大 / Geraldine Alexander | 饰 Mrs. Wilson
      乔安妮·亨利 / Joanne Henry | 饰 Judgy Mama
      山姆·海加斯 / Sam Haygarth | 饰 George Cruikshank
      约翰·麦凯 / John Mackay | 饰 Doctor Walker
      莫莉·麦克格林 / Molly McGlynn | 饰 Maid Rose
      安东尼·海德 / Anthony Head | 饰 Lord Sheffield
      肖布·卡浦尔 / Shobu Kapoor | 饰 Lady Sheffield
      埃里克·蒂德 / Eric Tiede | 饰 Boxing Announcer / Suitors / Market Vendor
      拉斯科·阿特金斯 / Lasco Atkins | 饰 Race attendee / Boxing Spectator
      鲁珀特·范西塔特 / Rupert Vansittart | 饰 Mr. Brookes
      路易斯·坎宁安 / Louis Cunningham | 饰 Lord Corning
      埃斯梅·科伊 / Esme Coy | 饰 Miss Margaret Goring
      托马斯·弗林 / Thomas Flynn | 饰 Rupert Norton
      艾米莉·巴伯 / Emily Barber | 饰 Tessa
      里查·普拉卡什 / Richa Prakash | 饰 Working Class
      詹姆斯·弗雷特 / James Fleet | 饰 King George III
       Stephen Patten | 饰 Working Class Man
◎编       剧  克里斯·范·杜森 / Chris Van Dusen
      丹尼尔·罗宾森 / Daniel Robinson
      莎拉·L·汤普森 / Sarah L. Thompson
      杰斯·布朗内尔 / Jess Brownell
      艾比·麦克唐纳 / Abby McDonald
      卢-卢·伊格伯德韦 / Lou-Lou Igbokwe
      奥利弗·戈德斯蒂克 / Oliver Goldstick
      茱莉亚·昆恩 / Julia Quinn
◎制  片  人  克里斯·范·杜森 / Chris Van Dusen
      珊达·莱梅斯 / Shonda Rhimes
      Betsy Beers Betsy Beers
      汤姆·维里卡 / Tom Verica
      茱莉亚·昆恩 / Julia Quinn
      莎拉·L·汤普森 / Sarah L. Thompson
      奥利弗·戈德斯蒂克 / Oliver Goldstick
      杰斯·布朗内尔 / Jess Brownell
◎服       装   Sophie Canale
◎简  介 
  在这一全新的社交季,布里奇顿家族的花边新闻依旧满天飞。这一季聚焦于大哥安东尼(乔纳森·贝利 饰)的情感生活,安东尼开始追求新来的埃德温娜·夏尔马小姐(查瑞莎·钱德兰 饰),但他发现自己必须得先过了她姐姐凯特·夏尔马(西蒙尼·阿什利 饰)这一关。然而,安东尼和凯特却越走越近,变得越来越亲密,安东尼发现自己陷入了三角恋。假如内心真正的欲望与个人职责相矛盾,该怎么办?纸包不住火,看来一则惊天秘闻即将爆发。
  1. General
  2. Unique ID                      : 174403791481177974800689123390890555924 (0x8334F2CD262B4E9576EE8978BEB1BA14)
  3. Complete name                  : 布里奇顿 第二季.mkv
  4. Format                         : Matroska
  5. Format version                 : Version 4
  6. File size                      : 9.10 GiB
  7. Duration                       : 1 h 10 min
  8. Overall bit rate               : 18.4 Mb/s
  9. Frame rate                     : 23.976 FPS
  10. Writing application            : mkvmerge v72.0.0 ('Minuano (Six-eight)') 64-bit
  11. Writing library                : libebml v1.4.4 + libmatroska v1.7.1

  12. Video
  13. ID                             : 1
  14. Format                         : HEVC
  15. Format/Info                    : High Efficiency Video Coding
  16. Format profile                 : Main 10@L5@Main
  17. HDR format                     : Dolby Vision, Version 1.0, dvhe.08.06, BL+RPU, HDR10 compatible / SMPTE ST 2086, HDR10 compatible
  18. Codec ID                       : V_MPEGH/ISO/HEVC
  19. Duration                       : 1 h 8 min
  20. Bit rate                       : 18.2 Mb/s
  21. Width                          : 3 840 pixels
  22. Height                         : 2 160 pixels
  23. Display aspect ratio           : 16:9
  24. Frame rate mode                : Constant
  25. Frame rate                     : 23.976 (24000/1001) FPS
  26. Color space                    : YUV
  27. Chroma subsampling             : 4:2:0 (Type 2)
  28. Bit depth                      : 10 bits
  29. Bits/(Pixel*Frame)             : 0.092
  30. Stream size                    : 8.71 GiB (96%)
  31. Language                       : English
  32. Default                        : Yes
  33. Forced                         : No
  34. Color range                    : Limited
  35. Color primaries                : BT.2020
  36. Transfer characteristics       : PQ
  37. Matrix coefficients            : BT.2020 non-constant
  38. Mastering display color primar : Display P3
  39. Mastering display luminance    : min: 0.0001 cd/m2, max: 1000 cd/m2
  40. Maximum Content Light Level    : 756 cd/m2
  41. Maximum Frame-Average Light Le : 119 cd/m2

  42. Audio
  43. ID                             : 2
  44. Format                         : E-AC-3 JOC
  45. Format/Info                    : Enhanced AC-3 with Joint Object Coding
  46. Commercial name                : Dolby Digital Plus with Dolby Atmos
  47. Codec ID                       : A_EAC3
  48. Duration                       : 1 h 10 min
  49. Bit rate mode                  : Constant
  50. Bit rate                       : 768 kb/s
  51. Channel(s)                     : 6 channels
  52. Channel layout                 : L R C LFE Ls Rs
  53. Sampling rate                  : 48.0 kHz
  54. Frame rate                     : 31.250 FPS (1536 SPF)
  55. Compression mode               : Lossy
  56. Stream size                    : 388 MiB (4%)
  57. Language                       : English
  58. Service kind                   : Complete Main
  59. Default                        : Yes
  60. Forced                         : No
  61. Complexity index               : 16
  62. Number of dynamic objects      : 15
  63. Bed channel count              : 1 channel
  64. Bed channel configuration      : LFE

  65. Text #1
  66. ID                             : 3
  67. Format                         : UTF-8
  68. Codec ID                       : S_TEXT/UTF8
  69. Codec ID/Info                  : UTF-8 Plain Text
  70. Duration                       : 1 h 5 min
  71. Bit rate                       : 85 b/s
  72. Frame rate                     : 0.273 FPS
  73. Count of elements              : 1080
  74. Stream size                    : 41.4 KiB (0%)
  75. Language                       : English
  76. Default                        : No
  77. Forced                         : No

  78. Text #38
  79. ID                             : 40
  80. Format                         : UTF-8
  81. Codec ID                       : S_TEXT/UTF8
  82. Codec ID/Info                  : UTF-8 Plain Text
  83. Duration                       : 1 h 8 min
  84. Bit rate                       : 74 b/s
  85. Frame rate                     : 0.259 FPS
  86. Count of elements              : 1057
  87. Stream size                    : 37.4 KiB (0%)
  88. Title                          : Simplified
  89. Language                       : Chinese (Simplified)
  90. Default                        : No
  91. Forced                         : No

  92. Text #39
  93. ID                             : 41
  94. Format                         : UTF-8
  95. Codec ID                       : S_TEXT/UTF8
  96. Codec ID/Info                  : UTF-8 Plain Text
  97. Duration                       : 1 h 8 min
  98. Bit rate                       : 75 b/s
  99. Frame rate                     : 0.253 FPS
  100. Count of elements              : 1033
  101. Stream size                    : 37.5 KiB (0%)
  102. Title                          : Traditional
  103. Language                       : Chinese (Traditional)
  104. Default                        : No
  105. Forced                         : No
复制代码


购买主题 本主题需向作者支付 35 金币 才能浏览
dqxa 发表于 2023-11-20 04:59:27 | 显示全部楼层
谢谢楼主分享
回复

使用道具 举报

hwm54803 发表于 2023-11-20 06:09:01 | 显示全部楼层
谢谢楼主分享
回复

使用道具 举报

v3344560 发表于 2023-11-20 09:09:59 | 显示全部楼层
谢谢楼主分享
回复

使用道具 举报

alittlehero 发表于 2023-11-20 11:42:21 | 显示全部楼层
谢谢楼主分享
回复

使用道具 举报

alittlehero 发表于 2023-11-20 11:45:02 | 显示全部楼层
  1. [size=2][url=forum.php?mod=redirect&goto=findpost&pid=237639&ptid=19243][color=#999999]alittlehero 发表于 2023-11-20 11:42[/color][/url][/size]
  2. 谢谢楼主分享
复制代码

谢谢楼主分享
回复

使用道具 举报

雨辰760501 发表于 2023-11-20 19:09:47 | 显示全部楼层
感谢楼主每天辛苦发帖分享!
回复

使用道具 举报

顾扣林 发表于 2023-11-21 09:07:52 | 显示全部楼层
感谢楼主分享
回复

使用道具 举报

顾扣林 发表于 2023-11-21 09:10:47 | 显示全部楼层
谢谢楼主分享
回复

使用道具 举报

您需要登录后才可以回帖 登录 | 立即注册

本版积分规则

QQ|Archiver|手机版|小黑屋|聚音影社区

GMT+8, 2024-6-17 12:59 , Processed in 0.092157 second(s), 17 queries .

Powered by Discuz! X3.5

© 2001-2024 Discuz! Team.

快速回复 返回顶部 返回列表