找回密码
 立即注册
搜索
热搜: 2023 高码

[115云盘]黑钱胜地 第一季[2017][完结剧集][4KHDR+DV][英语][内嵌简繁英字幕][133.59GB]

[复制链接]
lcw_008 发表于 2023-11-20 17:15:23 | 显示全部楼层 |阅读模式


◎译  名 黑钱胜地 第一季
◎片  名 Ozark Season 1
◎年  代 2017
◎产  地 美国
◎类  别 剧情 / 惊悚 / 犯罪
◎语  言 英语
◎上映日期 2017-07-21(美国)
◎IMDb评分  8.5/10 from 335962 users
◎IMDb链接  https://www.imdb.com/title/tt5071412/
◎豆瓣评分 8.3/10 from 21831 users
◎豆瓣链接   https://movie.douban.com/subject/26735549/
◎单集片长 60分钟
◎集  数 10
◎导       演  杰森·贝特曼 / Jason Bateman
      安德鲁·伯恩斯坦 / Andrew Bernstein
      艾伦·库拉斯 / Ellen Kuras
      丹尼尔·沙克海姆 / Daniel Sackheim
◎演       员  杰森·贝特曼 / Jason Bateman | 饰 Martin 'Marty' Byrde
      劳拉·琳妮 / Laura Linney | 饰 Wendy Byrde
      索菲娅·胡布利茨 / Sofia Hublitz | 饰 Charlotte
      斯凯勒·加特纳 / Skylar Gaertner | 饰 Jonah Byrde
      朱莉娅·加纳 / Julia Garner | 饰 Ruth Langmore
      乔丹娜·斯皮罗 / Jordana Spiro | 饰 Rachel
      杰森·巴特勒·哈纳 / Jason Butler Harner | 饰 Roy Petty
      埃塞·莫拉雷斯 / Esai Morales | 饰 Del
      丽莎·埃默里 / Lisa Emery
      彼得·穆兰 / Peter Mullan | 饰 Jacob Snell
      哈里斯·于林 / Harris Yulin | 饰 Buddy Dieker
      查理·塔汉 / Charlie Tahan | 饰 Wyatt
      马克·门查卡 / Marc Menchaca | 饰 Russ Langmore
      克里斯托弗·詹姆斯·贝克 / Christopher James Baker | 饰 Boyd Langmore
      迈克尔·莫斯利 / Michael Mosley | 饰 Mason Young
      盖奇·劳森 / Gage Lawson
      阿瑟·迈尔斯·法里卡 / Asher Miles Fallica
      贾斯汀·兰德尔·布鲁克 / Justin Randell Brooke
      贝瑟妮·安妮·林德 / Bethany Anne Lind | 饰 Grace Young
      瑞奇·缪斯 / Ricky Muse | 饰 Island Charlie
      塔拉·李 / Tara Lee | 饰 Young Woman
      艾比·格洛弗 / Abby Glover | 饰 Tracy
      本·拉普帕波特 / Ben Rappaport | 饰 Josh Silverberg
      罗伯特·C.特雷维勒 / Robert C. Treveiler | 饰 Sheriff John Nix
      特雷弗·隆恩 / Trevor Long | 饰 Cade Langmore
      卡尔森·霍尔姆斯 / Carson Holmes | 饰 Three
◎编       剧  比尔·迪比克 / Bill Dubuque
      保罗·考尔斯比 / Paul Kolsby
      马克·威廉姆斯 / Mark Williams
      马丁·齐默曼 / Martin Zimmerman
      马克·威廉姆斯 / Mark Williams
      艾莉森·费尔特斯 / Alyson Feltes
◎制  片  人  杰森·贝特曼 / Jason Bateman
◎音       乐  丹尼·本斯 / Danny Bensi
      桑德·朱里亚 / Saunder Jurriaans
◎摄       影  佩佩·阿维拉·德·皮诺 / Pepe Avila del Pino
      本·库钦 / Ben Kutchins
◎选       角  阿丽萨·L·福格尔 / Alexa L. Fogel
◎服       装   Stephani Lewis
◎简  介 
  《黑钱胜地》(Ozark)是一部由比尔·迪比克创作的电视剧。杰森·贝特曼主演,并导演了半数剧集。本剧主要讲述了贝特曼饰演理财师马蒂·伯德(杰森·贝特曼 饰)与其妻子温迪(劳拉·琳尼 饰)一家突然从芝加哥郊区搬到奥沙克湖的度假胜地,并必须还清墨西哥毒枭的债。
◎获奖情况 
      第75届金球奖 (2018)
  电视类 剧情类剧集最佳男主角(提名) 杰森·贝特曼
      第70届黄金时段艾美奖 (2018)
  剧情类 最佳男主角(提名) 杰森·贝特曼
  剧情类 最佳导演(提名) 杰森·贝特曼,丹尼尔·沙克海姆
      第24届美国演员工会奖 (2018)
  电视奖 剧情类剧集最佳男演员(提名) 杰森·贝特曼
  电视奖 剧情类剧集最佳女演员(提名) 劳拉·琳妮
      第70届美国编剧工会奖 (2018)
  电视奖 最佳新剧剧本(提名)
  1. General
  2. Unique ID                      : 73695001306930764190432022720092642606 (0x377124170F5B2A22611A3FEB11BD1D2E)
  3. Complete name                  : 临时存放文件夹\黑钱胜地 第一季.mkv
  4. Format                         : Matroska
  5. Format version                 : Version 4
  6. File size                      : 6.36 GiB
  7. Duration                       : 58 min 10 s
  8. Overall bit rate               : 15.7 Mb/s
  9. Frame rate                     : 23.976 FPS
  10. Movie name                     : Ozark S01E01 Sugarwood
  11. Writing application            : mkvmerge v13.0.0 ('Sharing is Caring') 64-bit
  12. Writing library                : libebml v1.0.0 + libmatroska v1.1.1
  13. IMDB                           : tt5071412
  14. TMDB                           : tv/69740
  15. TVDB                           : 329089

  16. Video
  17. ID                             : 1
  18. Format                         : HEVC
  19. Format/Info                    : High Efficiency Video Coding
  20. Format profile                 : Main 10@L5@Main
  21. HDR format                     : SMPTE ST 2086, HDR10 compatible
  22. Codec ID                       : V_MPEGH/ISO/HEVC
  23. Duration                       : 58 min 10 s
  24. Bit rate                       : 14.7 Mb/s
  25. Width                          : 3 840 pixels
  26. Height                         : 2 160 pixels
  27. Display aspect ratio           : 16:9
  28. Frame rate mode                : Constant
  29. Frame rate                     : 23.976 (24000/1001) FPS
  30. Color space                    : YUV
  31. Chroma subsampling             : 4:2:0 (Type 2)
  32. Bit depth                      : 10 bits
  33. Bits/(Pixel*Frame)             : 0.074
  34. Stream size                    : 5.97 GiB (94%)
  35. Default                        : Yes
  36. Forced                         : No
  37. Color range                    : Limited
  38. Color primaries                : BT.2020
  39. Transfer characteristics       : PQ
  40. Matrix coefficients            : BT.2020 non-constant
  41. Mastering display color primar : Display P3
  42. Mastering display luminance    : min: 0.0050 cd/m2, max: 4000 cd/m2
  43. Maximum Content Light Level    : 4275 cd/m2
  44. Maximum Frame-Average Light Le : 1426 cd/m2

  45. Audio
  46. ID                             : 2
  47. Format                         : E-AC-3
  48. Format/Info                    : Enhanced AC-3
  49. Commercial name                : Dolby Digital Plus
  50. Codec ID                       : A_EAC3
  51. Duration                       : 58 min 10 s
  52. Bit rate mode                  : Constant
  53. Bit rate                       : 640 kb/s
  54. Channel(s)                     : 6 channels
  55. Channel layout                 : L R C LFE Ls Rs
  56. Sampling rate                  : 48.0 kHz
  57. Frame rate                     : 31.250 FPS (1536 SPF)
  58. Compression mode               : Lossy
  59. Stream size                    : 266 MiB (4%)
  60. Language                       : English
  61. Service kind                   : Complete Main
  62. Default                        : Yes
  63. Forced                         : No

  64. Text #1
  65. ID                             : 3
  66. Format                         : UTF-8
  67. Codec ID                       : S_TEXT/UTF8
  68. Codec ID/Info                  : UTF-8 Plain Text
  69. Title                          : Forced
  70. Language                       : English
  71. Default                        : No
  72. Forced                         : Yes

  73. Text #5
  74. ID                             : 7
  75. Format                         : UTF-8
  76. Codec ID                       : S_TEXT/UTF8
  77. Codec ID/Info                  : UTF-8 Plain Text
  78. Title                          : Simplified
  79. Language                       : Chinese-cmn-Hans
  80. Default                        : No
  81. Forced                         : No

  82. Text #6
  83. ID                             : 8
  84. Format                         : UTF-8
  85. Codec ID                       : S_TEXT/UTF8
  86. Codec ID/Info                  : UTF-8 Plain Text
  87. Title                          : Traditional
  88. Language                       : Chinese-cmn-Hant
  89. Default                        : No
  90. Forced                         : No
复制代码


购买主题 本主题需向作者支付 60 金币 才能浏览
雨辰760501 发表于 2023-11-20 19:00:40 | 显示全部楼层
感谢楼主每天辛苦发帖分享!
回复

使用道具 举报

赵日天 发表于 2023-11-21 06:19:57 | 显示全部楼层
感谢楼主每天辛苦发帖分享!
回复

使用道具 举报

hwm54803 发表于 2023-11-21 06:22:28 | 显示全部楼层
感谢楼主分享
回复

使用道具 举报

顾扣林 发表于 2023-11-21 08:37:29 | 显示全部楼层
感谢楼主分享
回复

使用道具 举报

v3344560 发表于 2023-11-21 11:49:10 来自手机 | 显示全部楼层
谢谢楼主分享
回复

使用道具 举报

您需要登录后才可以回帖 登录 | 立即注册

本版积分规则

QQ|Archiver|手机版|小黑屋|聚音影社区

GMT+8, 2024-6-17 12:34 , Processed in 0.087280 second(s), 17 queries .

Powered by Discuz! X3.5

© 2001-2024 Discuz! Team.

快速回复 返回顶部 返回列表