找回密码
 立即注册
搜索
热搜: 2023 高码

[115云盘]吉尔莫·德尔·托罗的奇思妙想[2022][完结剧集][4KHDR+DV][英语][内嵌简繁英字幕][118.44GB]

[复制链接]
lcw_008 发表于 2023-11-21 10:30:16 | 显示全部楼层 |阅读模式


◎译  名 吉尔莫·德尔·托罗的奇思妙想 / 吉尔莫·德尔·托罗之珍奇柜 / 吉勒摩·戴托罗的珍奇柜 / 午夜后10点 / 好奇心柜 / Guillermo del Toro Presents 10 After Midnight
◎片  名 Guillermo del Toro's Cabinet of Curiosities
◎年  代 2022
◎产  地 美国 / 墨西哥
◎类  别 剧情 / 悬疑 / 惊悚 / 恐怖
◎语  言 英语
◎上映日期 2022-10-25(美国)
◎IMDb评分  7/10 from 53812 users
◎IMDb链接  https://www.imdb.com/title/tt8415836/
◎豆瓣评分 7.2/10 from 48345 users
◎豆瓣链接   https://movie.douban.com/subject/30222734/
◎单集片长 45分钟
◎集  数 8
◎导       演  吉列尔莫·纳瓦罗 / Guillermo Navarro
      文森佐·纳塔利 / Vincenzo Natali
      大卫·普瑞尔 / David Prior
      安娜·莉莉·阿米普尔 / Ana Lily Amirpour
      基斯·托马斯 / Keith Thomas
      凯瑟琳·哈德威克 / Catherine Hardwicke
      帕诺斯·科斯马图斯 / Panos Cosmatos
      詹妮弗·肯特 / Jennifer Kent
◎演       员  吉尔莫·德尔·托罗 / Guillermo del Toro
      蒂姆·布雷克·尼尔森 / Tim Blake Nelson | 饰 Nick Appleton
      德米垂斯·格罗斯 / Demetrius Grosse | 饰 Eddie
      艾尔皮迪娅·卡里洛 / Elpidia Carrillo | 饰 Emilia
      塞巴斯蒂安·罗奇 / Sebastian Roché | 饰 Roland
      玛莎·伯恩斯 / Martha Burns | 饰 Agatha
      詹姆斯·尼利 / James Neely  | 饰 Old Man
      莉兹·约翰斯顿 / Lize Johnston | 饰 Dottie
      托尼·孟克 / Tony Munch | 饰 Auctioneer
      伊莉丝·鲍曼 / Elise Bauman | 饰 Acid Jeans
       Bart Badzioch | 饰 Eyes
      尼尔·巴博考克 / Neil Babcock  | 饰 Baseball Cap
      F·默里·亚伯拉罕 / F. Murray Abraham | 饰 Dr. Carl Winters
      格林·特鲁曼 / Glynn Turman | 饰 Sheriff Nate Craven
      卢克·罗伯茨 / Luke Roberts | 饰 Joe Allen
      布拉德·博布里奇 / Brad Borbridge  | 饰 Burly Bidder
      凯特·米库奇 / Kate Micucci | 饰 Stacey
      马丁·斯塔尔 / Martin Starr | 饰 Keith
      丹·史蒂文斯 / Dan Stevens | 饰 Alo Glo Man
      肖娜·麦克唐纳德 / Shauna MacDonald | 饰 Kathy
      汤姆·鲁尼 / Tom Rooney | 饰 Mr. Labuschagne
      David Ian Matheson David Ian Matheson
      本·巴恩斯 / Ben Barnes | 饰 Thurber
      克里斯平·格洛弗 / Crispin Glover | 饰 Richard Upton Pickman
      奥里亚娜·勒曼 / Oriana Leman | 饰 Rebecca
      谢默斯·帕特森 / Seamus Patterson | 饰 Joe Minot
      雷米·弗林特 / Remy Flint  | 饰 James
      托姆·尼乌斯 / Thom Nyhuus
      温迪·里昂 / Wendy Lyon | 饰 Mrs. Creighton
      鲁伯特·格林特 / Rupert Grint | 饰 Walter Gilman
      伊斯梅尔·克鲁斯·科尔多瓦 / Ismael Cruz Cordova | 饰 Frank Elwood
      DJ·考尔斯 / DJ Qualls | 饰 Jenkins Brown
      妮娅·瓦达拉斯 / Nia Vardalos | 饰 Madame Levine
      加文·麦基弗·赖特 / Gavin MacIver-Wright | 饰 Young Walter Gilman
      泰妮卡 / 戴维斯 Tenika Davis | 饰 Mariana
      达芙妮·霍斯金斯 / Daphne Hoskins | 饰 Epperley Gilman
      韦斯利·弗兰斯 / Wesley French | 饰 Atsidi
      威廉·普兰 / William Poulin | 饰 Father
      索菲亚·波多拉 / Sofia Boutella | 饰 Dr. Zahra
      查琳·易 / Charlyne Yi | 饰 Charlotte Xie
      史蒂夫·阿吉 / Steve Agee | 饰 Guy Landon
      埃里克·安德烈 / Eric André | 饰 Randall Roth
      萨阿德·西迪基 / Saad Siddiqui | 饰 Hector
      彼得·威勒 / Peter Weller | 饰 Lionel Lassiter
      凯文·凯皮 / Kevin Keppy  | 饰 Corpse
      大卫·休莱特 / David Hewlett | 饰 Masson
      埃茜·戴维斯 / Essie Davis | 饰 Nancy Bradley
      安德鲁·林肯 / Andrew Lincoln | 饰 Edgar Bradley
      达斯顿·威廉·伦德 / Daxton William Lund | 饰 Young Boy
      汉娜·高威 / Hannah Galway | 饰 Claudette
      派瑞·穆奇 / Perry Mucci | 饰 Edgar's Colleague
      蒂姆·泽马內克 / Timm Zemanek | 饰 Mr. Montague
      马西娅·贝内特 / Marcia Bennett | 饰 Mrs. Montague
      亚历山大·艾林 / Alexander Eling  | 饰 Burton
      伊斯汗·莫里斯 / Ishan Morris | 饰 Harry
      詹姆斯·卡尔 / James Kall | 饰 The Priest
      朱利安·瑞钦斯 / Julian Richings | 饰 Dooley
      丹·贝尔尼 / Dan Beirne | 饰 Deputy Davis
      戴安娜·本特利 / Diana Bentley | 饰 Jill
      Sean Sansom Sean Sansom | 饰 Queen Rat
      比利·帕罗特 / Billy Parrott | 饰 Owens
      纳比勒·厄尔·哈菲夫 / Nabeel El Khafif | 饰 Hans Overfist
      伊莲娜·郁安科 / Elena Juatco
      Michael McLachlan Michael McLachlan
      Chloe MacLeod Chloe MacLeod
      Laurie Murdoch Laurie Murdoch | 饰 Dr. Reid
      库尔特·卡尔利 / Kurt Carley | 饰 The Queen Rat
      马蒂亚·杰克特 / Matia Jackett
◎编       剧  吉尔莫·德尔·托罗 / Guillermo del Toro
      雷吉纳·科拉多 / Regina Corrado
      文森佐·纳塔利 / Vincenzo Natali
      亨利·库特纳 / Henry Kuttner
      大卫·S·高耶 / David S. Goyer
      迈克尔·谢伊 / Michael Shea
      海莉·Z·波士顿 / Haley Z. Boston
      艾米丽·卡洛尔 / Emily Carroll
      李·帕特森 / Lee Patterson
      米卡·沃特金斯 / Mika Watkins
      H. P. 洛夫克拉夫特 H. P. Lovecraft
      帕诺斯·科斯马图斯 / Panos Cosmatos
      亚伦·斯图尔特-安 / Aaron Stewart-Ahn
      詹妮弗·肯特 / Jennifer Kent
◎制  片  人  J·迈尔斯·戴尔 / J. Miles Dale
      吉尔莫·德尔·托罗 / Guillermo del Toro
◎音       乐  杰夫·丹纳 / Jeff Danna
      杰德·库泽尔 / Jed Kurzel
      丹尼尔·卢皮 / Daniele Luppi
      Michael Yezerski Michael Yezerski
      克里斯托弗·杨 / Christopher Young
◎摄       影  杰里米·本宁 / Jeremy Benning
◎剪       辑  坎·麦克劳克林 / Cam McLauchlin
      马克·罗素 / Marc Roussel
◎选       角  丹尼斯·查米恩 / Denise Chamian
◎美       术  塔玛拉·德维雷尔 / Tamara Deverell
      Colin Woods Colin Woods
◎服       装  路易斯·塞凯拉 / Luis Sequeira
◎动作特技  莉斯·基林 / Liise Keeling
◎简  介 
  在《吉尔莫·德尔·托罗之珍奇柜》中,备受赞誉的奥斯卡金像获奖电影制作人、创剧人、监制兼联合剧集主管吉尔莫·德尔·托罗策划了一系列史无前例且具有流派定义的故事,旨在挑战我们传统的恐怖观念。从恐怖到魔幻,从哥特式到怪诞或古典恐怖,这八个同样复杂而险恶的故事(包括德尔·托罗的两个原创故事)由德尔·托罗亲自选择的编剧和导演团队搬上银幕。
  1. General
  2. Unique ID                      : 214149435690552421429028039991309019531 (0xA11BAE5B100C5BEC0EF54D79112EA98B)
  3. Complete name                  : 吉尔莫·德尔·托罗的奇思妙想.mkv
  4. Format                         : Matroska
  5. Format version                 : Version 4
  6. File size                      : 6.12 GiB
  7. Duration                       : 46 min 18 s
  8. Overall bit rate               : 18.9 Mb/s
  9. Frame rate                     : 24.000 FPS
  10. Writing application            : mkvmerge v72.0.0 ('Minuano (Six-eight)') 64-bit
  11. Writing library                : libebml v1.4.4 + libmatroska v1.7.1

  12. Video
  13. ID                             : 1
  14. Format                         : HEVC
  15. Format/Info                    : High Efficiency Video Coding
  16. Format profile                 : Main 10@L5@Main
  17. HDR format                     : Dolby Vision, Version 1.0, dvhe.08.06, BL+RPU, HDR10 compatible / SMPTE ST 2086, HDR10 compatible
  18. Codec ID                       : V_MPEGH/ISO/HEVC
  19. Duration                       : 44 min 57 s
  20. Bit rate                       : 18.7 Mb/s
  21. Width                          : 3 840 pixels
  22. Height                         : 2 160 pixels
  23. Display aspect ratio           : 16:9
  24. Frame rate mode                : Constant
  25. Frame rate                     : 24.000 FPS
  26. Color space                    : YUV
  27. Chroma subsampling             : 4:2:0 (Type 2)
  28. Bit depth                      : 10 bits
  29. Bits/(Pixel*Frame)             : 0.094
  30. Stream size                    : 5.87 GiB (96%)
  31. Default                        : Yes
  32. Forced                         : No
  33. Color range                    : Limited
  34. Color primaries                : BT.2020
  35. Transfer characteristics       : PQ
  36. Matrix coefficients            : BT.2020 non-constant
  37. Mastering display color primar : Display P3
  38. Mastering display luminance    : min: 0.0001 cd/m2, max: 1000 cd/m2
  39. Maximum Content Light Level    : 1368 cd/m2
  40. Maximum Frame-Average Light Le : 126 cd/m2

  41. Audio
  42. ID                             : 2
  43. Format                         : E-AC-3 JOC
  44. Format/Info                    : Enhanced AC-3 with Joint Object Coding
  45. Commercial name                : Dolby Digital Plus with Dolby Atmos
  46. Codec ID                       : A_EAC3
  47. Duration                       : 46 min 18 s
  48. Bit rate mode                  : Constant
  49. Bit rate                       : 768 kb/s
  50. Channel(s)                     : 6 channels
  51. Channel layout                 : L R C LFE Ls Rs
  52. Sampling rate                  : 48.0 kHz
  53. Frame rate                     : 31.250 FPS (1536 SPF)
  54. Compression mode               : Lossy
  55. Stream size                    : 254 MiB (4%)
  56. Language                       : English
  57. Service kind                   : Complete Main
  58. Default                        : No
  59. Forced                         : No
  60. Complexity index               : 16
  61. Number of dynamic objects      : 15
  62. Bed channel count              : 1 channel
  63. Bed channel configuration      : LFE

  64. Text #1
  65. ID                             : 3
  66. Format                         : UTF-8
  67. Codec ID                       : S_TEXT/UTF8
  68. Codec ID/Info                  : UTF-8 Plain Text
  69. Duration                       : 26 min 26 s
  70. Bit rate                       : 0 b/s
  71. Frame rate                     : 0.005 FPS
  72. Count of elements              : 8
  73. Stream size                    : 161 Bytes (0%)
  74. Title                          : Forced
  75. Language                       : English
  76. Default                        : Yes
  77. Forced                         : Yes

  78. Text #15
  79. ID                             : 17
  80. Format                         : UTF-8
  81. Codec ID                       : S_TEXT/UTF8
  82. Codec ID/Info                  : UTF-8 Plain Text
  83. Duration                       : 44 min 37 s
  84. Bit rate                       : 49 b/s
  85. Frame rate                     : 0.191 FPS
  86. Count of elements              : 512
  87. Stream size                    : 16.2 KiB (0%)
  88. Title                          : Simplified
  89. Language                       : Mandarin (Hans)
  90. Default                        : No
  91. Forced                         : No

  92. Text #30
  93. ID                             : 32
  94. Format                         : UTF-8
  95. Codec ID                       : S_TEXT/UTF8
  96. Codec ID/Info                  : UTF-8 Plain Text
  97. Duration                       : 44 min 37 s
  98. Bit rate                       : 47 b/s
  99. Frame rate                     : 0.216 FPS
  100. Count of elements              : 579
  101. Stream size                    : 15.6 KiB (0%)
  102. Title                          : Traditional
  103. Language                       : Mandarin (Hant)
  104. Default                        : No
  105. Forced                         : No
复制代码


购买主题 本主题需向作者支付 55 金币 才能浏览
alittlehero 发表于 2023-11-21 19:54:39 | 显示全部楼层
感谢楼主分享
回复

使用道具 举报

alittlehero 发表于 2023-11-21 21:42:09 | 显示全部楼层
  1. [size=2][url=forum.php?mod=redirect&goto=findpost&pid=238120&ptid=19253][color=#999999]alittlehero 发表于 2023-11-21 19:54[/color][/url][/size]
  2. 感谢楼主分享
复制代码

谢谢楼主分享
回复

使用道具 举报

顾扣林 发表于 2023-11-22 16:30:29 | 显示全部楼层
谢谢楼主分享
回复

使用道具 举报

顾扣林 发表于 2023-11-22 16:34:08 | 显示全部楼层
谢谢楼主分享
回复

使用道具 举报

雨辰760501 发表于 2023-11-22 22:35:49 | 显示全部楼层
感谢楼主每天辛苦发帖分享!
回复

使用道具 举报

您需要登录后才可以回帖 登录 | 立即注册

本版积分规则

QQ|Archiver|手机版|小黑屋|聚音影社区

GMT+8, 2024-5-21 01:37 , Processed in 0.073601 second(s), 17 queries .

Powered by Discuz! X3.5

© 2001-2024 Discuz! Team.

快速回复 返回顶部 返回列表