找回密码
 立即注册
搜索
热搜: 2023 高码

[115云盘]神话任务 第二季[2021][完结剧集][4K高码HDR+DV][英语][内嵌简繁英字幕][89.16GB]

[复制链接]
lcw_008 发表于 2023-11-21 20:33:19 | 显示全部楼层 |阅读模式


◎译  名 神话任务 第二季 / 神话任务:群鸦盛宴
◎片  名 Mythic Quest Season 2
◎年  代 2021
◎产  地 美国
◎类  别 喜剧
◎语  言 英语
◎上映日期 2021-05-07(美国)
◎IMDb评分  9.4/10 from 2581 users
◎IMDb链接  https://www.imdb.com/title/tt8879940/
◎豆瓣评分 7.9/10 from 469 users
◎豆瓣链接   https://movie.douban.com/subject/35367501/
◎单集片长 25分钟
◎集  数 9
◎导       演  罗布·麦克尔亨尼 / Rob McElhenney
◎演       员  罗布·麦克尔亨尼 / Rob McElhenney | 饰 Ian
      雅士利·伯奇 / Ashly Burch | 饰 Rachel
      杰茜·恩尼斯 / Jessie Ennis | 饰 Jo
      伊马尼·哈基姆 / Imani Hakim | 饰 Dana
      大卫·霍恩斯比 / David Hornsby | 饰 David
      夏洛特·尼克道 / Charlotte Nicdao | 饰 Poppy
      丹尼·朴迪 / Danny Pudi | 饰 Brad
      F·默里·亚伯拉罕 / F. Murray Abraham | 饰 C.W. Longbottom
      内奥米·埃克佩里金 / Naomi Ekperigin | 饰 Carol
      凯特琳·麦基 / Caitlin McGee | 饰 Sue
      克雷格·麦辛 / Craig Mazin | 饰 Lou
      亨弗莱·凯尔 / Humphrey Ker | 饰 Paul
       Edixon Caridad | 饰 Edixon
◎编       剧  梅根.甘茨 / Megan Ganz
      大卫·霍恩斯比 / David Hornsby
      罗布·麦克尔亨尼 / Rob McElhenney
      查理·戴 / Charlie Day
      克雷格·麦辛 / Craig Mazin
◎简  介 
  随着隔离终于结束,在新一季的《神秘任务》中,每个人都回到了办公室(好吧,几乎每个人),试图在《乌鸦的宴会》成功的基础上推出一个史诗般的新资料片,但伊恩(罗伯·麦克埃尔亨尼饰)和新晋升的联合创意总监波比(夏洛特·尼道饰)都在为游戏的方向而挣扎。与此同时,C.W.(F.默里·亚伯拉罕饰)调和了他过去的一些悬而未决的问题,测试人员(阿什利·伯奇和伊玛尼·哈基姆饰)测试了办公室恋情的界限,大卫(大卫·霍恩斯比饰)在乔(杰西·恩尼斯饰)离开他去帮助布拉德(丹尼·普迪饰)的过程中失去了另一个女人。
  1. General
  2. Unique ID                      : 33083634535652690195380123903876695150 (0x18E3AD1E3469B18E617B2AC725A0846E)
  3. Complete name                  : 神话任务 第二季.mkv
  4. Format                         : Matroska
  5. Format version                 : Version 4
  6. File size                      : 4.60 GiB
  7. Duration                       : 26 min 6 s
  8. Overall bit rate               : 25.2 Mb/s
  9. Frame rate                     : 23.939 FPS
  10. Writing application            : mkvmerge v56.0.0 ('Strasbourg / St. Denis') 64-bit
  11. Writing library                : libebml v1.4.2 + libmatroska v1.6.4

  12. Video
  13. ID                             : 1
  14. Format                         : HEVC
  15. Format/Info                    : High Efficiency Video Coding
  16. Format profile                 : Main 10@L5@High
  17. HDR format                     : SMPTE ST 2086, HDR10 compatible
  18. Codec ID                       : V_MPEGH/ISO/HEVC
  19. Duration                       : 26 min 6 s
  20. Bit rate                       : 24.4 Mb/s
  21. Width                          : 3 840 pixels
  22. Height                         : 1 920 pixels
  23. Display aspect ratio           : 2.000
  24. Frame rate mode                : Variable
  25. Frame rate                     : 23.939 FPS
  26. Color space                    : YUV
  27. Chroma subsampling             : 4:2:0 (Type 2)
  28. Bit depth                      : 10 bits
  29. Bits/(Pixel*Frame)             : 0.138
  30. Stream size                    : 4.46 GiB (97%)
  31. Language                       : English
  32. Default                        : Yes
  33. Forced                         : No
  34. Color range                    : Limited
  35. Color primaries                : BT.2020
  36. Transfer characteristics       : PQ
  37. Matrix coefficients            : BT.2020 non-constant
  38. Mastering display color primar : Display P3
  39. Mastering display luminance    : min: 0.0050 cd/m2, max: 1000 cd/m2
  40. Maximum Content Light Level    : 741 cd/m2
  41. Maximum Frame-Average Light Le : 41 cd/m2

  42. Audio
  43. ID                             : 2
  44. Format                         : E-AC-3 JOC
  45. Format/Info                    : Enhanced AC-3 with Joint Object Coding
  46. Commercial name                : Dolby Digital Plus with Dolby Atmos
  47. Codec ID                       : A_EAC3
  48. Duration                       : 26 min 6 s
  49. Bit rate mode                  : Constant
  50. Bit rate                       : 768 kb/s
  51. Channel(s)                     : 6 channels
  52. Channel layout                 : L R C LFE Ls Rs
  53. Sampling rate                  : 48.0 kHz
  54. Frame rate                     : 31.250 FPS (1536 SPF)
  55. Compression mode               : Lossy
  56. Stream size                    : 143 MiB (3%)
  57. Language                       : English
  58. Service kind                   : Complete Main
  59. Default                        : Yes
  60. Forced                         : No
  61. Complexity index               : 16
  62. Number of dynamic objects      : 15
  63. Bed channel count              : 1 channel
  64. Bed channel configuration      : LFE

  65. Text #1
  66. ID                             : 3
  67. Format                         : UTF-8
  68. Codec ID                       : S_TEXT/UTF8
  69. Codec ID/Info                  : UTF-8 Plain Text
  70. Duration                       : 24 min 56 s
  71. Bit rate                       : 94 b/s
  72. Frame rate                     : 0.327 FPS
  73. Count of elements              : 490
  74. Stream size                    : 17.2 KiB (0%)
  75. Language                       : English
  76. Default                        : No
  77. Forced                         : No


  78. Text #5
  79. ID                             : 7
  80. Format                         : UTF-8
  81. Codec ID                       : S_TEXT/UTF8
  82. Codec ID/Info                  : UTF-8 Plain Text
  83. Duration                       : 25 min 58 s
  84. Bit rate                       : 86 b/s
  85. Frame rate                     : 0.318 FPS
  86. Count of elements              : 495
  87. Stream size                    : 16.4 KiB (0%)
  88. Title                          : Cantonese (Traditional)
  89. Language                       : Chinese
  90. Default                        : No
  91. Forced                         : No

  92. Text #6
  93. ID                             : 8
  94. Format                         : UTF-8
  95. Codec ID                       : S_TEXT/UTF8
  96. Codec ID/Info                  : UTF-8 Plain Text
  97. Duration                       : 25 min 58 s
  98. Bit rate                       : 77 b/s
  99. Frame rate                     : 0.317 FPS
  100. Count of elements              : 494
  101. Stream size                    : 14.8 KiB (0%)
  102. Title                          : Chinese (Simplified)
  103. Language                       : Chinese
  104. Default                        : No
  105. Forced                         : No

  106. Text #7
  107. ID                             : 9
  108. Format                         : UTF-8
  109. Codec ID                       : S_TEXT/UTF8
  110. Codec ID/Info                  : UTF-8 Plain Text
  111. Duration                       : 25 min 58 s
  112. Bit rate                       : 83 b/s
  113. Frame rate                     : 0.318 FPS
  114. Count of elements              : 495
  115. Stream size                    : 16.0 KiB (0%)
  116. Title                          : Chinese (Traditional)
  117. Language                       : Chinese
  118. Default                        : No
  119. Forced                         : No
复制代码


购买主题 本主题需向作者支付 40 金币 才能浏览
dqxa 发表于 2023-11-22 04:52:15 | 显示全部楼层
谢谢楼主分享
回复

使用道具 举报

hwm54803 发表于 2023-11-22 06:26:07 | 显示全部楼层
谢谢楼主分享
回复

使用道具 举报

alittlehero 发表于 2023-11-22 12:32:53 | 显示全部楼层
谢谢楼主分享
回复

使用道具 举报

alittlehero 发表于 2023-11-22 12:35:32 | 显示全部楼层
  1. [size=2][url=forum.php?mod=redirect&goto=findpost&pid=238389&ptid=19264][color=#999999]alittlehero 发表于 2023-11-22 12:32[/color][/url][/size]
  2. 谢谢楼主分享
复制代码

谢谢楼主分享
回复

使用道具 举报

雨辰760501 发表于 2023-11-22 16:42:19 | 显示全部楼层
感谢楼主每天辛苦发帖分享!
回复

使用道具 举报

顾扣林 发表于 2023-11-22 17:01:34 | 显示全部楼层
谢谢楼主分享
回复

使用道具 举报

您需要登录后才可以回帖 登录 | 立即注册

本版积分规则

QQ|Archiver|手机版|小黑屋|聚音影社区

GMT+8, 2024-5-21 03:02 , Processed in 0.070713 second(s), 17 queries .

Powered by Discuz! X3.5

© 2001-2024 Discuz! Team.

快速回复 返回顶部 返回列表