找回密码
 立即注册
搜索
热搜: 2023 高码

[115云盘]环环相扣[2023][完结剧集][4K高码HDR+DV双版本][英语][内嵌简繁英字幕][43.80GB]

[复制链接]
lcw_008 发表于 2023-12-5 19:53:50 | 显示全部楼层 |阅读模式


◎译  名 环环相扣
◎片  名 Full Circle
◎年  代 2023
◎产  地 美国
◎类  别 剧情 / 悬疑 / 犯罪
◎语  言 英语
◎上映日期 2023-07-13(美国)
◎IMDb评分  6.3/10 from 6159 users
◎IMDb链接  https://www.imdb.com/title/tt15303234/
◎豆瓣评分 6.2/10 from 520 users
◎豆瓣链接   https://movie.douban.com/subject/35580186/
◎单集片长 40-54分钟
◎集  数 6
◎导       演  史蒂文·索德伯格 / Steven Soderbergh
◎演       员  克莱尔·丹尼斯 / Claire Danes | 饰 Sam
      丹尼斯·奎德 / Dennis Quaid
      莎姬·贝兹 / Zazie Beetz | 饰 Harmony
      蒂莫西·奥利芬特 / Timothy Olyphant | 饰 Derek
      海皮·安德森 / Happy Anderson | 饰 Joey
      法尔杜特·夏尔马 / Phaldut Sharma | 饰 Garmen
      苏珊·萨瓦 / Suzanne Savoy | 饰 Kristin McCusker
      乔·卡尼亚诺 / Joe Caniano | 饰 Welch
      丹尼·霍奇 / Danny Hoch | 饰 Ron Cuneo
      陈大卫 / David Chen | 饰 Bouncer
      蒂娜·王-卢 / Tina WongLu | 饰 Eloise Yee
      贾雷尔·杰罗姆 / Jharrel Jerome
      亚历克斯·温特 / Alex Winter
      吉姆·加菲根 / Jim Gaffigan | 饰 Manny Broward
      维多利亚·丹尼尔科-佩特罗夫斯卡娅 / Victorya Danylko-Petrovskaya | 饰 Hotel Clerk
      麦迪逊·麦克布莱德 / Madison McBride | 饰 Shakeela
      伊利亚·乔治 / Elijah George | 饰 Jogger
      Ted Sod Ted Sod | 饰 Clarence
◎编       剧  艾德·索罗门 / Ed Solomon
◎简  介 
  故事讲述在对一起搞砸的绑架事件调查中,许多隐瞒已久的秘密被揭开,它们与多个人物,以及如今的纽约文化有着关联。
  1. General
  2. Unique ID                      : 134957387269003490974454977034749832648 (0x6587D8EAFF227C838FFB8A2040F16DC8)
  3. Complete name                  : 环环相扣.mkv
  4. Format                         : Matroska
  5. Format version                 : Version 4
  6. File size                      : 8.85 GiB
  7. Duration                       : 59 min 7 s
  8. Overall bit rate               : 21.4 Mb/s
  9. Frame rate                     : 23.976 FPS
  10. Encoded date                   : 2023-08-13 05:12:33 UTC
  11. Writing application            : mkvmerge v78.0 ('Running') 64-bit
  12. Writing library                : libebml v1.4.4 + libmatroska v1.7.1
  13. Muxer                          : CHDBits WEB Group

  14. Video
  15. ID                             : 1
  16. Format                         : HEVC
  17. Format/Info                    : High Efficiency Video Coding
  18. Format profile                 : Main 10@L5.1@Main
  19. HDR format                     : Dolby Vision, Version 1.0, dvhe.08.06, BL+RPU, HDR10 compatible / SMPTE ST 2086, HDR10 compatible
  20. Codec ID                       : V_MPEGH/ISO/HEVC
  21. Duration                       : 59 min 7 s
  22. Bit rate                       : 21.2 Mb/s
  23. Width                          : 3 840 pixels
  24. Height                         : 2 160 pixels
  25. Display aspect ratio           : 16:9
  26. Frame rate mode                : Constant
  27. Frame rate                     : 23.976 (24000/1001) FPS
  28. Color space                    : YUV
  29. Chroma subsampling             : 4:2:0 (Type 0)
  30. Bit depth                      : 10 bits
  31. Bits/(Pixel*Frame)             : 0.106
  32. Stream size                    : 8.75 GiB (99%)
  33. Writing library                : x265 3.5+1-f0c1022b6:[Linux][GCC 10.2.1][64 bit] 10bit
  34. Default                        : Yes
  35. Forced                         : No
  36. Color range                    : Limited
  37. Color primaries                : BT.2020
  38. Transfer characteristics       : PQ
  39. Matrix coefficients            : BT.2020 non-constant
  40. Mastering display color primar : BT.2020
  41. Mastering display luminance    : min: 0.0001 cd/m2, max: 1000 cd/m2
  42. Maximum Content Light Level    : 950 cd/m2
  43. Maximum Frame-Average Light Le : 214 cd/m2

  44. Audio
  45. ID                             : 2
  46. Format                         : E-AC-3
  47. Format/Info                    : Enhanced AC-3
  48. Commercial name                : Dolby Digital Plus
  49. Codec ID                       : A_EAC3
  50. Duration                       : 59 min 7 s
  51. Bit rate mode                  : Constant
  52. Bit rate                       : 256 kb/s
  53. Channel(s)                     : 6 channels
  54. Channel layout                 : L R C LFE Ls Rs
  55. Sampling rate                  : 48.0 kHz
  56. Frame rate                     : 31.250 FPS (1536 SPF)
  57. Compression mode               : Lossy
  58. Stream size                    : 108 MiB (1%)
  59. Language                       : English (US)
  60. Service kind                   : Complete Main
  61. Default                        : Yes
  62. Forced                         : No

  63. Text #2
  64. ID                             : 4
  65. Format                         : UTF-8
  66. Codec ID                       : S_TEXT/UTF8
  67. Codec ID/Info                  : UTF-8 Plain Text
  68. Duration                       : 59 min 0 s
  69. Bit rate                       : 75 b/s
  70. Frame rate                     : 0.272 FPS
  71. Count of elements              : 964
  72. Stream size                    : 32.8 KiB (0%)
  73. Title                          : SDH
  74. Language                       : English (US)
  75. Default                        : No
  76. Forced                         : No

  77. Text #6
  78. ID                             : 8
  79. Format                         : UTF-8
  80. Codec ID                       : S_TEXT/UTF8
  81. Codec ID/Info                  : UTF-8 Plain Text
  82. Duration                       : 57 min 11 s
  83. Bit rate                       : 61 b/s
  84. Frame rate                     : 0.216 FPS
  85. Count of elements              : 742
  86. Stream size                    : 25.7 KiB (0%)
  87. Title                          : Simplified
  88. Language                       : Chinese (Simplified)
  89. Default                        : Yes
  90. Forced                         : No

  91. Text #7
  92. ID                             : 9
  93. Format                         : UTF-8
  94. Codec ID                       : S_TEXT/UTF8
  95. Codec ID/Info                  : UTF-8 Plain Text
  96. Duration                       : 57 min 11 s
  97. Bit rate                       : 61 b/s
  98. Frame rate                     : 0.216 FPS
  99. Count of elements              : 742
  100. Stream size                    : 25.7 KiB (0%)
  101. Title                          : Traditional
  102. Language                       : Chinese (Traditional)
  103. Default                        : No
  104. Forced                         : No
复制代码


购买主题 本主题需向作者支付 25 金币 才能浏览
hwm54803 发表于 2023-12-6 06:47:15 | 显示全部楼层
谢谢楼主分享
回复

使用道具 举报

顾扣林 发表于 2023-12-6 09:32:54 | 显示全部楼层
谢谢楼主分享
回复

使用道具 举报

雨辰760501 发表于 2023-12-6 18:27:18 | 显示全部楼层
感谢楼主每天辛苦发帖分享!
回复

使用道具 举报

v3344560 发表于 2023-12-6 18:42:47 | 显示全部楼层
谢谢楼主分享
回复

使用道具 举报

您需要登录后才可以回帖 登录 | 立即注册

本版积分规则

QQ|Archiver|手机版|小黑屋|聚音影社区

GMT+8, 2024-3-1 19:15 , Processed in 0.073319 second(s), 17 queries .

Powered by Discuz! X3.5

© 2001-2024 Discuz! Team.

快速回复 返回顶部 返回列表