找回密码
 立即注册
搜索
热搜: 2023 高码

[115云盘]Novela Season 1[2023][完结剧集][4KHDR][葡萄牙语][内嵌简繁英字幕][23.01GB]

[复制链接]
lcw_008 发表于 2023-12-5 20:50:18 | 显示全部楼层 |阅读模式


◎片  名 Novela Season 1
◎年  代 2023
◎产  地 美国
◎类  别 喜剧
◎语  言 葡萄牙语
◎上映日期 2023-07-28(美国)
◎IMDb评分  7.1/10 from 100 users
◎IMDb链接  https://www.imdb.com/title/tt16246260/
◎豆瓣链接 https://douban.com/subject/36466179/
◎单集片长 28分钟
◎集  数 8
◎主      演    Maria Bopp / Herson Capri / Miguel Falabella
◎简  介
  暂无相关剧情介绍
  1. General
  2. Unique ID                      : 294914413177704043394203818784081906410 (0xDDDE732F12C9ED75953D3D6B1C890AEA)
  3. Complete name                  : 临时存放文件夹\Novela Season 1.mkv
  4. Format                         : Matroska
  5. Format version                 : Version 4
  6. File size                      : 3.17 GiB
  7. Duration                       : 30 min 41 s
  8. Overall bit rate               : 14.8 Mb/s
  9. Frame rate                     : 23.976 FPS
  10. Encoded date                   : 2023-08-04 04:22:17 UTC
  11. Writing application            : mkvmerge v78.0 ('Running') 64-bit
  12. Writing library                : libebml v1.4.4 + libmatroska v1.7.1
  13. Muxer                          : CHDBits WEB Group

  14. Video
  15. ID                             : 1
  16. Format                         : HEVC
  17. Format/Info                    : High Efficiency Video Coding
  18. Format profile                 : Main 10@L5@Main
  19. HDR format                     : SMPTE ST 2094 App 4, Version 1, HDR10+ Profile B compatible
  20. Codec ID                       : V_MPEGH/ISO/HEVC
  21. Duration                       : 30 min 41 s
  22. Bit rate                       : 14.1 Mb/s
  23. Width                          : 3 840 pixels
  24. Height                         : 1 920 pixels
  25. Display aspect ratio           : 2.000
  26. Frame rate mode                : Constant
  27. Frame rate                     : 23.976 (24000/1001) FPS
  28. Color space                    : YUV
  29. Chroma subsampling             : 4:2:0
  30. Bit depth                      : 10 bits
  31. Bits/(Pixel*Frame)             : 0.080
  32. Stream size                    : 3.03 GiB (96%)
  33. Language                       : Portuguese (BR)
  34. Default                        : Yes
  35. Forced                         : No
  36. Color range                    : Limited
  37. Color primaries                : BT.2020
  38. Transfer characteristics       : PQ
  39. Matrix coefficients            : BT.2020 non-constant
  40. Mastering display color primar : Display P3
  41. Mastering display luminance    : min: 0.0001 cd/m2, max: 1000 cd/m2
  42. Maximum Content Light Level    : 983 cd/m2
  43. Maximum Frame-Average Light Le : 283 cd/m2

  44. Audio
  45. ID                             : 2
  46. Format                         : E-AC-3
  47. Format/Info                    : Enhanced AC-3
  48. Commercial name                : Dolby Digital Plus
  49. Codec ID                       : A_EAC3
  50. Duration                       : 30 min 41 s
  51. Bit rate mode                  : Constant
  52. Bit rate                       : 640 kb/s
  53. Channel(s)                     : 6 channels
  54. Channel layout                 : L R C LFE Ls Rs
  55. Sampling rate                  : 48.0 kHz
  56. Frame rate                     : 31.250 FPS (1536 SPF)
  57. Compression mode               : Lossy
  58. Stream size                    : 140 MiB (4%)
  59. Title                          : Brazil
  60. Language                       : Portuguese (BR)
  61. Service kind                   : Complete Main
  62. Default                        : Yes
  63. Forced                         : No

  64. Text #1
  65. ID                             : 3
  66. Format                         : UTF-8
  67. Codec ID                       : S_TEXT/UTF8
  68. Codec ID/Info                  : UTF-8 Plain Text
  69. Duration                       : 1 s 1 ms
  70. Bit rate                       : 95 b/s
  71. Frame rate                     : 0.999 (999/1000) FPS
  72. Count of elements              : 1
  73. Stream size                    : 12.0 Bytes (0%)
  74. Title                          : Brazil (Forced)
  75. Language                       : Portuguese (BR)
  76. Default                        : Yes
  77. Forced                         : Yes

  78. Text #4
  79. ID                             : 6
  80. Format                         : UTF-8
  81. Codec ID                       : S_TEXT/UTF8
  82. Codec ID/Info                  : UTF-8 Plain Text
  83. Duration                       : 29 min 59 s
  84. Bit rate                       : 58 b/s
  85. Frame rate                     : 0.236 FPS
  86. Count of elements              : 424
  87. Stream size                    : 12.8 KiB (0%)
  88. Title                          : Simplified
  89. Language                       : Chinese (Simplified)
  90. Default                        : No
  91. Forced                         : No

  92. Text #5
  93. ID                             : 7
  94. Format                         : UTF-8
  95. Codec ID                       : S_TEXT/UTF8
  96. Codec ID/Info                  : UTF-8 Plain Text
  97. Duration                       : 29 min 59 s
  98. Bit rate                       : 53 b/s
  99. Frame rate                     : 0.236 FPS
  100. Count of elements              : 424
  101. Stream size                    : 11.7 KiB (0%)
  102. Title                          : Traditional
  103. Language                       : Chinese (Traditional)
  104. Default                        : No
  105. Forced                         : No

  106. Text #11
  107. ID                             : 13
  108. Format                         : UTF-8
  109. Codec ID                       : S_TEXT/UTF8
  110. Codec ID/Info                  : UTF-8 Plain Text
  111. Duration                       : 28 min 19 s
  112. Bit rate                       : 62 b/s
  113. Frame rate                     : 0.249 FPS
  114. Count of elements              : 423
  115. Stream size                    : 12.9 KiB (0%)
  116. Language                       : English (US)
  117. Default                        : No
  118. Forced                         : No
复制代码


购买主题 本主题需向作者支付 15 金币 才能浏览
hwm54803 发表于 2023-12-6 06:42:56 | 显示全部楼层
谢谢楼主分享
回复

使用道具 举报

顾扣林 发表于 2023-12-6 09:42:24 | 显示全部楼层
谢谢楼主分享
回复

使用道具 举报

雨辰760501 发表于 2023-12-6 18:19:06 | 显示全部楼层
感谢楼主每天辛苦发帖分享!
回复

使用道具 举报

v3344560 发表于 2023-12-6 18:57:56 | 显示全部楼层
谢谢楼主分享
回复

使用道具 举报

您需要登录后才可以回帖 登录 | 立即注册

本版积分规则

QQ|Archiver|手机版|小黑屋|聚音影社区

GMT+8, 2024-3-1 18:41 , Processed in 0.078110 second(s), 17 queries .

Powered by Discuz! X3.5

© 2001-2024 Discuz! Team.

快速回复 返回顶部 返回列表