找回密码
 立即注册
搜索
热搜: 2023 高码

[115云盘]老妈老爸的浪漫史 第二季[2023][完结剧集][4KHDR+DV双版本][英语][内嵌简繁英字幕][49.04GB]

[复制链接]
lcw_008 发表于 2023-12-6 12:43:03 | 显示全部楼层 |阅读模式


◎译  名 老妈老爸的浪漫史 第二季 / 追爱总动员之相爱百分百(台)
◎片  名 How I Met Your Father Season 2
◎年  代 2023
◎产  地 美国
◎类  别 剧情 / 喜剧
◎语  言 英语
◎上映日期 2023-01-24(美国)
◎IMDb评分  7/10 from 691 users
◎IMDb链接  https://www.imdb.com/title/tt14500082/
◎豆瓣评分 6.3/10 from 291 users
◎豆瓣链接   https://movie.douban.com/subject/35771447/
◎单集片长 20分钟
◎集  数 20
◎导       演  帕梅拉·福莱曼 / Pamela Fryman
◎演       员  希拉里·达芙 / Hilary Duff | 饰 Sophie
      克里斯·劳威尔 / Chris Lowell | 饰 Jesse
      弗兰西娅·莱莎 / Francia Raisa | 饰 Valentina
      苏拉·沙玛 / Suraj Sharma | 饰 Sid
      Tom Ainsley Tom Ainsley | 饰 Charlie
      特兰·泰恩 / Tien Tran | 饰 Ellen
      金·凯特罗尔 / Kim Cattrall | 饰 Sophie
      寇碧·史莫德斯 / Cobie Smulders | 饰 Robin
      尼尔·帕特里克·哈里斯 / Neil Patrick Harris | 饰 Barney Stinson
      凯尔·麦克拉克伦 / Kyle MacLachlan | 饰 The Captain
      阿什丽·雷耶斯 / Ashley Reyes | 饰 Hannah
      乔·尼夫斯 / Joe Nieves | 饰 Carl
      莉顿·梅斯特 / Leighton Meester | 饰 Meredith
      劳拉·贝尔·邦迪 / Laura Bell Bundy | 饰 Becky
      琳赛·卡夫 / Lindsey Kraft | 饰 Lisa
      巴里·里维斯顿 / Barry Livingston | 饰 Captain's Lawyer
◎编       剧  艾萨克·阿普塔克 / Isaac Aptaker
      伊丽莎白·伯格 / Elizabeth Berger
      卡特·贝斯 / Carter Bays
      克雷格·汤姆斯 / Craig Thomas
      凯伦·约瑟夫·爱德考克 / Karen Joseph Adcock
◎简  介
  暂无相关剧情介绍
  1. General
  2. Unique ID                      : 316048810668607472027676975830497008864 (0xEDC4C96E0C8A98C882E97AE017D89CE0)
  3. Complete name                  : 老妈老爸的浪漫史 第二季.mkv
  4. Format                         : Matroska
  5. Format version                 : Version 4
  6. File size                      : 2.71 GiB
  7. Duration                       : 24 min 25 s
  8. Overall bit rate               : 15.9 Mb/s
  9. Frame rate                     : 23.976 FPS
  10. Encoded date                   : 2023-07-14 04:40:52 UTC
  11. Writing application            : mkvmerge v78.0 ('Running') 64-bit
  12. Writing library                : libebml v1.4.4 + libmatroska v1.7.1
  13. Muxer                          : CHDBits WEB Group

  14. Video
  15. ID                             : 1
  16. Format                         : HEVC
  17. Format/Info                    : High Efficiency Video Coding
  18. Format profile                 : Main 10@L5.1@Main
  19. HDR format                     : Dolby Vision, Version 1.0, dvhe.08.06, BL+RPU, HDR10 compatible / SMPTE ST 2094 App 4, Version 1, HDR10+ Profile B compatible
  20. Codec ID                       : V_MPEGH/ISO/HEVC
  21. Duration                       : 24 min 25 s
  22. Bit rate                       : 15.6 Mb/s
  23. Width                          : 3 840 pixels
  24. Height                         : 2 160 pixels
  25. Display aspect ratio           : 16:9
  26. Frame rate mode                : Constant
  27. Frame rate                     : 23.976 (24000/1001) FPS
  28. Color space                    : YUV
  29. Chroma subsampling             : 4:2:0 (Type 2)
  30. Bit depth                      : 10 bits
  31. Bits/(Pixel*Frame)             : 0.078
  32. Stream size                    : 2.66 GiB (98%)
  33. Language                       : English
  34. Default                        : Yes
  35. Forced                         : No
  36. Color range                    : Limited
  37. Color primaries                : BT.2020
  38. Transfer characteristics       : PQ
  39. Matrix coefficients            : BT.2020 non-constant
  40. Mastering display color primar : Display P3
  41. Mastering display luminance    : min: 0.0001 cd/m2, max: 1000 cd/m2
  42. Maximum Content Light Level    : 1104 cd/m2
  43. Maximum Frame-Average Light Le : 48 cd/m2

  44. Audio
  45. ID                             : 2
  46. Format                         : E-AC-3
  47. Format/Info                    : Enhanced AC-3
  48. Commercial name                : Dolby Digital Plus
  49. Codec ID                       : A_EAC3
  50. Duration                       : 24 min 25 s
  51. Bit rate mode                  : Constant
  52. Bit rate                       : 256 kb/s
  53. Channel(s)                     : 6 channels
  54. Channel layout                 : L R C LFE Ls Rs
  55. Sampling rate                  : 48.0 kHz
  56. Frame rate                     : 31.250 FPS (1536 SPF)
  57. Compression mode               : Lossy
  58. Stream size                    : 44.7 MiB (2%)
  59. Language                       : English
  60. Service kind                   : Complete Main
  61. Default                        : Yes
  62. Forced                         : No

  63. Text #1
  64. ID                             : 3
  65. Format                         : UTF-8
  66. Codec ID                       : S_TEXT/UTF8
  67. Codec ID/Info                  : UTF-8 Plain Text
  68. Duration                       : 24 min 11 s
  69. Bit rate                       : 104 b/s
  70. Frame rate                     : 0.380 FPS
  71. Count of elements              : 552
  72. Stream size                    : 18.5 KiB (0%)
  73. Title                          : SDH
  74. Language                       : English
  75. Default                        : No
  76. Forced                         : No

  77. Text #2
  78. ID                             : 4
  79. Format                         : UTF-8
  80. Codec ID                       : S_TEXT/UTF8
  81. Codec ID/Info                  : UTF-8 Plain Text
  82. Duration                       : 24 min 13 s
  83. Bit rate                       : 106 b/s
  84. Frame rate                     : 0.377 FPS
  85. Count of elements              : 548
  86. Stream size                    : 18.9 KiB (0%)
  87. Title                          : SDH
  88. Language                       : Spanish
  89. Default                        : No
  90. Forced                         : No

  91. Text #3
  92. ID                             : 5
  93. Format                         : UTF-8
  94. Codec ID                       : S_TEXT/UTF8
  95. Codec ID/Info                  : UTF-8 Plain Text
  96. Duration                       : 24 min 20 s
  97. Bit rate                       : 81 b/s
  98. Frame rate                     : 0.306 FPS
  99. Count of elements              : 447
  100. Stream size                    : 14.5 KiB (0%)
  101. Title                          : Simplified
  102. Language                       : Chinese
  103. Default                        : Yes
  104. Forced                         : No

  105. Text #4
  106. ID                             : 6
  107. Format                         : UTF-8
  108. Codec ID                       : S_TEXT/UTF8
  109. Codec ID/Info                  : UTF-8 Plain Text
  110. Duration                       : 24 min 20 s
  111. Bit rate                       : 81 b/s
  112. Frame rate                     : 0.306 FPS
  113. Count of elements              : 447
  114. Stream size                    : 14.5 KiB (0%)
  115. Title                          : Traditional
  116. Language                       : Chinese
  117. Default                        : Yes
  118. Forced                         : No
复制代码


购买主题 本主题需向作者支付 25 金币 才能浏览
雨辰760501 发表于 2023-12-6 18:03:45 | 显示全部楼层
感谢楼主每天辛苦发帖分享!
回复

使用道具 举报

dqxa 发表于 2023-12-7 06:28:05 | 显示全部楼层
谢谢楼主分享
回复

使用道具 举报

v3344560 发表于 2023-12-7 07:38:45 | 显示全部楼层
谢谢楼主分享
回复

使用道具 举报

hwm54803 发表于 2023-12-7 12:39:41 | 显示全部楼层
感谢楼主分享
回复

使用道具 举报

顾扣林 发表于 2023-12-7 13:37:11 | 显示全部楼层
谢谢楼主分享
回复

使用道具 举报

ssgps 发表于 2023-12-8 07:27:40 | 显示全部楼层
谢谢分享!!!
回复

使用道具 举报

您需要登录后才可以回帖 登录 | 立即注册

本版积分规则

QQ|Archiver|手机版|小黑屋|聚音影社区

GMT+8, 2024-3-1 19:22 , Processed in 0.079315 second(s), 17 queries .

Powered by Discuz! X3.5

© 2001-2024 Discuz! Team.

快速回复 返回顶部 返回列表