找回密码
 立即注册
搜索
热搜: 2023 高码

[115云盘]乱世微光[2023][完结剧集][4KHDR+DV][英语][内嵌简繁英字幕][89.07GB]

[复制链接]
lcw_008 发表于 2023-12-6 14:19:58 | 显示全部楼层 |阅读模式


◎译  名 乱世微光 / 微弱光芒
◎片  名 A Small Light
◎年  代 2023
◎产  地 美国
◎类  别 剧情 / 传记 / 历史 / 战争
◎语  言 英语
◎上映日期 2023-05-01(美国)
◎IMDb评分  8.4/10 from 10102 users
◎IMDb链接  https://www.imdb.com/title/tt17921714/
◎豆瓣评分 9.0/10 from 2486 users
◎豆瓣链接   https://movie.douban.com/subject/35869056/
◎单集片长 60分钟
◎集  数 8
◎导       演  苏珊娜·福格尔 / Susanna Fogel
      托尼·佩兰 / Tony Phelan
      莱斯利·霍普 / Leslie Hope
◎演       员  蓓尔·波利 / Bel Powley | 饰 Miep Gies
      乔·科尔 / Joe Cole | 饰 Jan Gies
      列维·施瑞博尔 / Liev Schreiber | 饰 Otto Frank
      比莉·布勒 / Billie Boullet | 饰 Anne Frank
      艾什莉·布鲁克 / Ashley Brooke | 饰 Margot Frank
      阿蜜拉·卡萨 / Amira Casar | 饰 Edith Frank
      安迪·尼曼 / Andy Nyman | 饰 Hermann Van Pels
      卡罗琳·凯兹 / Caroline Catz | 饰 Auguste Van Pels
      鲁迪·古德曼 / Rudi Goodman | 饰 Peter Van Pels
      诺亚·泰勒 / Noah Taylor | 饰 Doctor Pfeffer
      伊恩·麦克尔希尼 / Ian McElhinney | 饰 Johannes Kleiman
      尼古拉斯·本恩斯 / Nicholas Burns | 饰 Victor Kugler
      萨莉·梅瑟姆 / Sally Messham | 饰 Bep Voskuijl
      埃莉诺·汤姆林森 / Eleanor Tomlinson | 饰 Tess
      塞巴斯蒂安·阿梅斯托 / Sebastian Armesto | 饰 Max Stoppleman
      比尔·米尔纳 / Bill Milner | 饰 Tonny Ahlers
      普雷斯顿·尼曼 / Preston Nyman | 饰 Kuno Van Der Horst
      汉娜·布里斯托 / Hannah Bristow | 饰 Betje
      萨拉·温特 / Sarah Winter | 饰 Liesje
      玛雅·戈尔金 / Maya Gorkin | 饰 Corry
      玛格·比拉尔德 / Margaux Billard | 饰 Stella Soppelman
      德里斯·阿克玛德 / Dries Alkemade | 饰 Ziegler
      加斯帕·科克霍夫 / Jasper Kerkhof  | 饰 German Officer in Sidecar
       James Beaumont | 饰 Lyman
      朱莉·萨维赛纳 / Julie Svecená | 饰 First Violinist
      丹尼尔·顿斯科伊 / Daniel Donskoy  | 饰 Karl Silberbauer
      维克多·麦奎尔 / Victor McGuire | 饰 Grootendorst
      劳利·基纳斯顿 / Laurie Kynaston | 饰 Casmir
      丽莎萨多维 / Liza Sadovy | 饰 Mrs. Stoppelman
      汉纳·范·弗利特 / Hanna van Vliet | 饰 Frieda Belinfante
      米歇尔·帕克 / Michelle Parker  | 饰 Bet van Beeren
      吉姆·海伊 / Jim High | 饰 Bram Becker
      科斯马·肖 / Cosima Shaw | 饰 Genofeva Nieuwenburg
      布莱恩·卡斯佩 / Brian Caspe | 饰 Laurens Niewenburg
       西妮德·菲尔普斯 Sinead Phelps | 饰 Anka
       Laura Baranik | 饰 Katrien
      Sarah T. Cohen Sarah T. Cohen | 饰 Maya Schwarz
      Lisa Karlström Lisa Karlström | 饰 Charlotte Kaletta
      亚历克斯·蒙蒂罗 / Alex Montyro | 饰 Vigo
      汤姆·斯托顿 / Tom Stourton | 饰 Daniel Van Dijk
      薇琪·佩珀代因 / Vicki Pepperdine | 饰 Gerdi Lange
      本·埃斯勒 / Ben Esler | 饰 Father Dirksen
      保罗·索恩利 / Paul Thornley | 饰 Scheublein
      杰西卡·布恩 / Jessica Boone | 饰 Esther
      马克斯·班内特 / Max Bennett | 饰 Koning
      罗茜·费尔纳 / Rosie Fellner | 饰 Therese
      乔·温特劳布 / Joe Weintraub | 饰 Derek
      朱迪思·乔治 / Judith Georgi | 饰 Vera
      诺亚·雷戈特 / Noah Leggott | 饰 Young Cas Nieuwenburg
      Gunnar DeYoung Gunnar DeYoung | 饰 Kuiper
      克劳迪娅·瓦西科娃 / Claudia Vasekova | 饰 Austrian social worker
◎编       剧  琼·拉特 / Joan Rater
      托尼·佩兰 / Tony Phelan
      威廉·哈珀 / William Harper
      本·埃斯勒 / Ben Esler
      艾丽莎·玛格丽特·雅各布森 / Alyssa Margarite Jacobson
◎制  片  人  托尼·佩兰 / Tony Phelan
      琼·拉特 / Joan Rater
      威廉·哈珀 / William Harper
      阿威·尼尔 / Avi Nir
      苏珊娜·福格尔 / Susanna Fogel
◎简  介 
  该剧根据真人真事改编,讲述了二战期间,梅普·吉斯(蓓尔·波利 Bel Powley 饰)协助奥托·法兰克(列维·施瑞博尔 Liev Schreiber 饰)及其家人藏匿以逃脱纳粹迫害的故事。
  梅普在二十多岁的时候,收到奥托的请求,希望可以藏匿在她的家中,以此躲过纳粹当时对于犹太人的迫害。梅普与自己的丈夫扬,还有其它的人义无反顾地担起了这个重担;在接下来的两年里,照顾着包括奥托、安妮在内的八名避难者。
  尽管在1944年这次藏匿计划以失败告终,但梅普妥善保存了安妮于躲藏期间所写的《安妮日记》,并在战后交还给了唯一幸存的奥托,整理成了此后最重要的纪录文献。而在二战后,梅普与扬成立了社会团体,协助战后归来的人,并致力于对部分人关于日记造假进行驳斥。2010年,梅普于阿姆斯特丹去世,享年100岁。
  “超过两万名荷兰人在需要藏匿的那几年间协助藏匿犹太人及其他人,我只是欣然做我可以协助的事。我丈夫也是。这不算什么。” 梅普曾经这样说道。
◎获奖情况 
      第33届哥谭独立电影奖 (2023)
  最佳突破剧集(提名) 威廉·哈珀,琼·拉特,阿威·尼尔,托尼·佩兰,苏珊娜·福格尔
  最佳新剧演出(提名) 蓓尔·波利
  1. General
  2. Unique ID                      : 275779389054015837989835593178703269408 (0xCF792DA7D8E08E653A8214E6CECD0E20)
  3. Complete name                  : 乱世微光.mkv
  4. Format                         : Matroska
  5. Format version                 : Version 4
  6. File size                      : 5.70 GiB
  7. Duration                       : 55 min 6 s
  8. Overall bit rate               : 14.8 Mb/s
  9. Frame rate                     : 23.976 FPS
  10. Encoded date                   : 2023-06-20 05:59:26 UTC
  11. Writing application            : mkvmerge v74.0.0 ('You Oughta Know') 64-bit
  12. Writing library                : libebml v1.4.4 + libmatroska v1.7.1

  13. Video
  14. ID                             : 1
  15. Format                         : HEVC
  16. Format/Info                    : High Efficiency Video Coding
  17. Format profile                 : Main 10@L5@High
  18. HDR format                     : SMPTE ST 2086, HDR10 compatible
  19. Codec ID                       : V_MPEGH/ISO/HEVC
  20. Duration                       : 55 min 6 s
  21. Bit rate                       : 14.0 Mb/s
  22. Width                          : 3 840 pixels
  23. Height                         : 2 160 pixels
  24. Display aspect ratio           : 16:9
  25. Frame rate mode                : Constant
  26. Frame rate                     : 23.976 (24000/1001) FPS
  27. Color space                    : YUV
  28. Chroma subsampling             : 4:2:0
  29. Bit depth                      : 10 bits
  30. Bits/(Pixel*Frame)             : 0.071
  31. Stream size                    : 5.41 GiB (95%)
  32. Default                        : Yes
  33. Forced                         : No
  34. Color range                    : Limited
  35. Color primaries                : BT.2020
  36. Transfer characteristics       : PQ
  37. Matrix coefficients            : BT.2020 non-constant
  38. Mastering display color primar : Display P3
  39. Mastering display luminance    : min: 0.0010 cd/m2, max: 1000 cd/m2

  40. Audio
  41. ID                             : 2
  42. Format                         : E-AC-3 JOC
  43. Format/Info                    : Enhanced AC-3 with Joint Object Coding
  44. Commercial name                : Dolby Digital Plus with Dolby Atmos
  45. Format settings                : Dolby Surround EX
  46. Codec ID                       : A_EAC3
  47. Duration                       : 55 min 6 s
  48. Bit rate mode                  : Constant
  49. Bit rate                       : 768 kb/s
  50. Channel(s)                     : 6 channels
  51. Channel layout                 : L R C LFE Ls Rs
  52. Sampling rate                  : 48.0 kHz
  53. Frame rate                     : 31.250 FPS (1536 SPF)
  54. Compression mode               : Lossy
  55. Stream size                    : 303 MiB (5%)
  56. Language                       : English
  57. Service kind                   : Complete Main
  58. Default                        : Yes
  59. Forced                         : No
  60. Complexity index               : 16
  61. Number of dynamic objects      : 15
  62. Bed channel count              : 1 channel
  63. Bed channel configuration      : LFE

  64. Text #1
  65. ID                             : 3
  66. Format                         : UTF-8
  67. Codec ID                       : S_TEXT/UTF8
  68. Codec ID/Info                  : UTF-8 Plain Text
  69. Duration                       : 55 min 4 s
  70. Bit rate                       : 63 b/s
  71. Frame rate                     : 0.229 FPS
  72. Count of elements              : 756
  73. Stream size                    : 25.8 KiB (0%)
  74. Title                          : Simplified
  75. Language                       : Chinese (Simplified)
  76. Default                        : No
  77. Forced                         : No

  78. Text #2
  79. ID                             : 4
  80. Format                         : UTF-8
  81. Codec ID                       : S_TEXT/UTF8
  82. Codec ID/Info                  : UTF-8 Plain Text
  83. Duration                       : 55 min 4 s
  84. Bit rate                       : 63 b/s
  85. Frame rate                     : 0.229 FPS
  86. Count of elements              : 756
  87. Stream size                    : 25.8 KiB (0%)
  88. Title                          : Traditional
  89. Language                       : Chinese (Traditional)
  90. Default                        : No
  91. Forced                         : No

  92. Text #3
  93. ID                             : 5
  94. Format                         : UTF-8
  95. Codec ID                       : S_TEXT/UTF8
  96. Codec ID/Info                  : UTF-8 Plain Text
  97. Duration                       : 40 min 35 s
  98. Bit rate                       : 2 b/s
  99. Frame rate                     : 0.017 FPS
  100. Count of elements              : 41
  101. Stream size                    : 811 Bytes (0%)
  102. Title                          : Forced
  103. Language                       : English
  104. Default                        : No
  105. Forced                         : Yes
复制代码


购买主题 本主题需向作者支付 40 金币 才能浏览
雨辰760501 发表于 2023-12-6 17:57:52 | 显示全部楼层
感谢楼主每天辛苦发帖分享!
回复

使用道具 举报

dqxa 发表于 2023-12-7 04:29:07 | 显示全部楼层
谢谢楼主分享
回复

使用道具 举报

v3344560 发表于 2023-12-7 07:41:13 | 显示全部楼层
谢谢楼主分享
回复

使用道具 举报

xunimeng 发表于 2023-12-7 10:10:18 | 显示全部楼层
二战题材影视剧
回复

使用道具 举报

hwm54803 发表于 2023-12-7 12:34:21 | 显示全部楼层
感谢楼主分享
回复

使用道具 举报

顾扣林 发表于 2023-12-7 14:04:29 | 显示全部楼层
谢谢楼主分享
回复

使用道具 举报

ssgps 发表于 2023-12-8 07:19:37 | 显示全部楼层
谢谢分享!!!
回复

使用道具 举报

您需要登录后才可以回帖 登录 | 立即注册

本版积分规则

QQ|Archiver|手机版|小黑屋|聚音影社区

GMT+8, 2024-3-1 18:50 , Processed in 0.070560 second(s), 17 queries .

Powered by Discuz! X3.5

© 2001-2024 Discuz! Team.

快速回复 返回顶部 返回列表