找回密码
 立即注册
搜索
热搜: 2023 高码

[115云盘]维琴河 第一季[2019][完结剧集][4KHDR][英语][内嵌简繁英字幕][49.48GB]

[复制链接]
lcw_008 发表于 2023-12-6 20:31:27 | 显示全部楼层 |阅读模式


◎译  名 维琴河 第一季
◎片  名 Virgin River Season 1
◎年  代 2019
◎产  地 美国
◎类  别 爱情
◎语  言 英语
◎上映日期 2019-12-06(美国)
◎IMDb评分  7.4/10 from 49963 users
◎IMDb链接  https://www.imdb.com/title/tt9077530/
◎豆瓣评分 7.4/10 from 600 users
◎豆瓣链接   https://movie.douban.com/subject/30337949/
◎单集片长 46分钟
◎集  数 10
◎导       演  马丁·伍德 / Martin Wood
      提姆·麦锡森 / Tim Matheson
◎演       员  亚利桑德拉·布莱肯瑞吉 / Alexandra Breckenridge
      马丁·亨德森 / Martin Henderson
      本·霍灵斯沃斯 / Ben Hollingsworth
      科林·劳伦斯 / Colin Lawrence
      安妮特·奥图 / Annette O'Toole
      提姆·麦锡森 / Tim Matheson
      莱克莎·多伊格 / Lexa Doig
      丹尼尔·吉里斯 / Daniel Gillies
      伊安·崔西 / Ian Tracey
      泰瑞尔·罗瑟里 / Teryl Rothery
      查德·洛克 / Chad Rook
      大卫·库比特 / David Cubitt
      格温斯·沃尔什 / Gwynyth Walsh
      琳达·博伊德 / Lynda Boyd
      迈克尔·山克斯 / Michael Shanks
      克里斯蒂娜·杰斯特泽姆布斯卡 / Christina Jastrzembska
      霍莉·唐娜 / Holly Dignard
      马尔科姆·斯图尔特 / Malcolm Stewart
      埃文·费拉顿 / Evan Ferraton
      劳伦·汉默斯利 / Lauren Hammersley
      格雷森·麦克斯韦·根西 / Grayson Maxwell Gurnsey | 饰  Ricky
◎简  介 
  改编自Robyn Carr小说的《维琴河 Virgin River》讲述女主Melinda Monroe(Alexandra Breckenridge饰)来到加州偏远小镇维琴河当护士,她认为这处是开展新生活﹑丢下痛苦回忆的好地方。不过她发现小镇生活没其预料般简单,如果Melinda真心希望以维琴河为家,她得自己振作起来。《维琴河》原著是多达20本的系列作,被列入Harpercollins 200大书榜中。
  1. General
  2. Unique ID                      : 108670911493992909395293258270078180452 (0x51C14199CC28E91ED8D8DD42F4E09C64)
  3. Complete name                  : 维琴河 第一季.mkv
  4. Format                         : Matroska
  5. Format version                 : Version 4
  6. File size                      : 5.34 GiB
  7. Duration                       : 47 min 45 s
  8. Overall bit rate               : 16.0 Mb/s
  9. Frame rate                     : 23.976 FPS
  10. Movie name                     : Virgin River S01E01 Carry On
  11. Writing application            : mkvmerge v13.0.0 ('Sharing is Caring') 64-bit
  12. Writing library                : libebml v1.0.0 + libmatroska v1.1.1
  13. IMDB                           : tt9077530
  14. TMDB                           : tv/88324
  15. TVDB                           : 371972

  16. Video
  17. ID                             : 1
  18. Format                         : HEVC
  19. Format/Info                    : High Efficiency Video Coding
  20. Format profile                 : Main 10@L5@Main
  21. HDR format                     : Dolby Vision, Version 1.0, dvhe.08.06, BL+RPU, HDR10 compatible / SMPTE ST 2086, HDR10 compatible
  22. Codec ID                       : V_MPEGH/ISO/HEVC
  23. Duration                       : 47 min 45 s
  24. Bit rate                       : 15.2 Mb/s
  25. Width                          : 3 840 pixels
  26. Height                         : 2 160 pixels
  27. Display aspect ratio           : 16:9
  28. Frame rate mode                : Constant
  29. Frame rate                     : 23.976 (24000/1001) FPS
  30. Color space                    : YUV
  31. Chroma subsampling             : 4:2:0 (Type 2)
  32. Bit depth                      : 10 bits
  33. Bits/(Pixel*Frame)             : 0.077
  34. Stream size                    : 5.08 GiB (95%)
  35. Default                        : Yes
  36. Forced                         : No
  37. Color range                    : Limited
  38. Color primaries                : BT.2020
  39. Transfer characteristics       : PQ
  40. Matrix coefficients            : BT.2020 non-constant
  41. Mastering display color primar : Display P3
  42. Mastering display luminance    : min: 0.0001 cd/m2, max: 1000 cd/m2
  43. Maximum Content Light Level    : 1272 cd/m2
  44. Maximum Frame-Average Light Le : 513 cd/m2

  45. Audio
  46. ID                             : 2
  47. Format                         : E-AC-3 JOC
  48. Format/Info                    : Enhanced AC-3 with Joint Object Coding
  49. Commercial name                : Dolby Digital Plus with Dolby Atmos
  50. Codec ID                       : A_EAC3
  51. Duration                       : 47 min 45 s
  52. Bit rate mode                  : Constant
  53. Bit rate                       : 768 kb/s
  54. Channel(s)                     : 6 channels
  55. Channel layout                 : L R C LFE Ls Rs
  56. Sampling rate                  : 48.0 kHz
  57. Frame rate                     : 31.250 FPS (1536 SPF)
  58. Compression mode               : Lossy
  59. Stream size                    : 262 MiB (5%)
  60. Language                       : English
  61. Service kind                   : Complete Main
  62. Default                        : Yes
  63. Forced                         : No
  64. Complexity index               : 16
  65. Number of dynamic objects      : 15
  66. Bed channel count              : 1 channel
  67. Bed channel configuration      : LFE

  68. Text #1
  69. ID                             : 3
  70. Format                         : UTF-8
  71. Codec ID                       : S_TEXT/UTF8
  72. Codec ID/Info                  : UTF-8 Plain Text
  73. Duration                       : 45 min 31 s
  74. Bit rate                       : 64 b/s
  75. Frame rate                     : 0.252 FPS
  76. Count of elements              : 688
  77. Stream size                    : 21.6 KiB (0%)
  78. Language                       : English
  79. Default                        : No
  80. Forced                         : No

  81. Text #4
  82. ID                             : 6
  83. Format                         : UTF-8
  84. Codec ID                       : S_TEXT/UTF8
  85. Codec ID/Info                  : UTF-8 Plain Text
  86. Duration                       : 46 min 35 s
  87. Bit rate                       : 249 b/s
  88. Frame rate                     : 0.243 FPS
  89. Count of elements              : 680
  90. Stream size                    : 85.0 KiB (0%)
  91. Title                          : Simplified
  92. Language                       : Chinese (Simplified)
  93. Default                        : No
  94. Forced                         : No

  95. Text #5
  96. ID                             : 7
  97. Format                         : UTF-8
  98. Codec ID                       : S_TEXT/UTF8
  99. Codec ID/Info                  : UTF-8 Plain Text
  100. Duration                       : 46 min 35 s
  101. Bit rate                       : 255 b/s
  102. Frame rate                     : 0.252 FPS
  103. Count of elements              : 705
  104. Stream size                    : 87.2 KiB (0%)
  105. Title                          : Traditional
  106. Language                       : Chinese (Traditional)
  107. Default                        : No
  108. Forced                         : No
复制代码


购买主题 本主题需向作者支付 25 金币 才能浏览
dqxa 发表于 2023-12-7 04:25:02 | 显示全部楼层
谢谢楼主分享
回复

使用道具 举报

v3344560 发表于 2023-12-7 11:18:55 来自手机 | 显示全部楼层
谢谢楼主分享
回复

使用道具 举报

hwm54803 发表于 2023-12-7 12:09:52 | 显示全部楼层
感谢楼主分享
回复

使用道具 举报

alittlehero 发表于 2023-12-7 12:31:21 | 显示全部楼层
谢谢楼主分享
回复

使用道具 举报

alittlehero 发表于 2023-12-7 12:33:57 | 显示全部楼层
  1. [size=2][url=forum.php?mod=redirect&goto=findpost&pid=244124&ptid=19467][color=#999999]alittlehero 发表于 2023-12-7 12:31[/color][/url][/size]
  2. 谢谢楼主分享
复制代码

谢谢楼主分享
回复

使用道具 举报

顾扣林 发表于 2023-12-7 14:49:33 | 显示全部楼层
谢谢楼主分享
回复

使用道具 举报

雨辰760501 发表于 2023-12-7 19:00:09 | 显示全部楼层
感谢楼主每天辛苦发帖分享!
回复

使用道具 举报

yrccihr 发表于 2023-12-8 14:30:02 | 显示全部楼层
感谢楼主分享
回复

使用道具 举报

您需要登录后才可以回帖 登录 | 立即注册

本版积分规则

QQ|Archiver|手机版|小黑屋|聚音影社区

GMT+8, 2024-3-1 20:00 , Processed in 0.069089 second(s), 17 queries .

Powered by Discuz! X3.5

© 2001-2024 Discuz! Team.

快速回复 返回顶部 返回列表