找回密码
 立即注册
搜索
热搜: 2023 高码

[115云盘]大人物 第一季[2021][完结剧集][4KHDR][英语][内嵌简繁英字幕][52.19GB]

[复制链接]
lcw_008 发表于 2023-12-7 23:53:39 | 显示全部楼层 |阅读模式


◎译  名 大人物 第一季 / 女篮高手(台) / 头牌
◎片  名 Big Shot Season 1
◎年  代 2021
◎产  地 美国
◎类  别 剧情 / 喜剧 / 运动
◎语  言 英语
◎上映日期 2021-04-16(美国)
◎IMDb评分  7.5/10 from 5266 users
◎IMDb链接  https://www.imdb.com/title/tt11238096/
◎豆瓣评分 7.5/10 from 435 users
◎豆瓣链接   https://movie.douban.com/subject/34894563/
◎单集片长 43-45分钟
◎集  数 10
◎导       演  越阮 / Viet Nguyen
◎演       员  杰萨琳·吉尔西格 / Jessalyn Gilsig | 饰 Holly
      伊薇特·尼科尔·布朗 / Yvette Nicole Brown | 饰 Sherilyn Thomas            
      索菲亚·米特·施洛斯 / Sophia Mitri Schloss | 饰 Emma
      克里克特·万普尔 / Cricket Wampler | 饰 Samantha
      黛西·罗斯·布莱内斯 / Darcy Rose Byrnes | 饰 Harper
      戴尔·惠布利 / Dale Whibley | 饰 Lucas Gruzinsky
      约翰·斯塔莫斯 / John Stamos | 饰 Marvyn Korn
      杰弗里·D·萨姆斯 / Jeffrey D. Sams
      艾米·皮特兹 / Amy Pietz | 饰 Caren Korn
      迈克尔·特鲁科 / Michael Trucco | 饰 Larry Gruzinsky
      萨拉·阿米尼 / Sara Amini | 饰 Katrina
      施瑞·阿普莱碧 / Shiri Appleby | 饰 Holly
      简·霍格 / Jan Hoag
      理查德·罗比查乌克斯 / Richard Robichaux | 饰 George
      基拉·塞特尔 / Keala Settle
◎编       剧  大卫·E·凯利 / David E. Kelley
      Grace Cary Bickley Grace Cary Bickley
      布拉德·加内特 / Brad Garrett
      迪恩·洛雷 / Dean Lorey
◎简  介 
  John Stamos将主演David E. Kelley及Dean Lorey所执笔的Disney+剧《大人物 Big Shot》,这部剧灵感来自《单亲家长 Single Parents》主演Brad Garrett﹑Bill D’Elia负责执导头两集。
  这部10集剧讲述个性倔强的大学篮球队教练(John Stamos饰)被炒后,他的新工作是在一间女子精英私立高校当教师及教练。
  1. General
  2. Unique ID                      : 210935077647856979102115994304021208917 (0x9EB09E44BD0ACAC0AE41501776DF1F55)
  3. Complete name                  : 大人物 第一季.mkv
  4. Format                         : Matroska
  5. Format version                 : Version 4
  6. File size                      : 5.07 GiB
  7. Duration                       : 43 min 7 s
  8. Overall bit rate               : 16.8 Mb/s
  9. Frame rate                     : 23.976 FPS
  10. Encoded date                   : 2023-12-07 10:34:46 UTC
  11. Writing application            : mkvmerge v7.5.0 ('Glass Culture') 64bit built on Jan  4 2015 16:48:44
  12. Writing library                : libebml v1.3.1 + libmatroska v1.4.2

  13. Video
  14. ID                             : 1
  15. Format                         : HEVC
  16. Format/Info                    : High Efficiency Video Coding
  17. Format profile                 : Main 10@L5@High
  18. HDR format                     : SMPTE ST 2086, HDR10 compatible
  19. Codec ID                       : V_MPEGH/ISO/HEVC
  20. Duration                       : 43 min 7 s
  21. Bit rate                       : 16.1 Mb/s
  22. Width                          : 3 840 pixels
  23. Height                         : 2 160 pixels
  24. Display aspect ratio           : 16:9
  25. Frame rate mode                : Constant
  26. Frame rate                     : 23.976 (24000/1001) FPS
  27. Color space                    : YUV
  28. Chroma subsampling             : 4:2:0
  29. Bit depth                      : 10 bits
  30. Bits/(Pixel*Frame)             : 0.081
  31. Stream size                    : 4.84 GiB (95%)
  32. Language                       : English
  33. Default                        : Yes
  34. Forced                         : No
  35. Color range                    : Limited
  36. Color primaries                : BT.2020
  37. Transfer characteristics       : PQ
  38. Matrix coefficients            : BT.2020 non-constant
  39. Mastering display color primar : Display P3
  40. Mastering display luminance    : min: 0.0001 cd/m2, max: 1000 cd/m2

  41. Audio
  42. ID                             : 2
  43. Format                         : E-AC-3 JOC
  44. Format/Info                    : Enhanced AC-3 with Joint Object Coding
  45. Commercial name                : Dolby Digital Plus with Dolby Atmos
  46. Codec ID                       : A_EAC3
  47. Duration                       : 43 min 7 s
  48. Bit rate mode                  : Constant
  49. Bit rate                       : 768 kb/s
  50. Channel(s)                     : 6 channels
  51. Channel layout                 : L R C LFE Ls Rs
  52. Sampling rate                  : 48.0 kHz
  53. Frame rate                     : 31.250 FPS (1536 SPF)
  54. Compression mode               : Lossy
  55. Stream size                    : 237 MiB (5%)
  56. Language                       : English
  57. Service kind                   : Complete Main
  58. Default                        : Yes
  59. Forced                         : No
  60. Complexity index               : 16
  61. Number of dynamic objects      : 15
  62. Bed channel count              : 1 channel
  63. Bed channel configuration      : LFE

  64. Text #1
  65. ID                             : 3
  66. Format                         : UTF-8
  67. Codec ID                       : S_TEXT/UTF8
  68. Codec ID/Info                  : UTF-8 Plain Text
  69. Duration                       : 42 min 51 s
  70. Bit rate                       : 69 b/s
  71. Frame rate                     : 0.257 FPS
  72. Count of elements              : 662
  73. Stream size                    : 21.8 KiB (0%)
  74. Title                          : Simplified
  75. Language                       : Chinese
  76. Default                        : Yes
  77. Forced                         : Yes

  78. Text #2
  79. ID                             : 4
  80. Format                         : UTF-8
  81. Codec ID                       : S_TEXT/UTF8
  82. Codec ID/Info                  : UTF-8 Plain Text
  83. Duration                       : 42 min 51 s
  84. Bit rate                       : 71 b/s
  85. Frame rate                     : 0.258 FPS
  86. Count of elements              : 664
  87. Stream size                    : 22.3 KiB (0%)
  88. Title                          : Traditional
  89. Language                       : Chinese
  90. Default                        : No
  91. Forced                         : No

  92. Text #3
  93. ID                             : 5
  94. Format                         : UTF-8
  95. Codec ID                       : S_TEXT/UTF8
  96. Codec ID/Info                  : UTF-8 Plain Text
  97. Duration                       : 42 min 51 s
  98. Bit rate                       : 65 b/s
  99. Frame rate                     : 0.258 FPS
  100. Count of elements              : 663
  101. Stream size                    : 20.6 KiB (0%)
  102. Title                          : Hong Kong
  103. Language                       : Chinese
  104. Default                        : No
  105. Forced                         : No

  106. Text #4
  107. ID                             : 6
  108. Format                         : UTF-8
  109. Codec ID                       : S_TEXT/UTF8
  110. Codec ID/Info                  : UTF-8 Plain Text
  111. Duration                       : 41 min 18 s
  112. Bit rate                       : 84 b/s
  113. Frame rate                     : 0.293 FPS
  114. Count of elements              : 727
  115. Stream size                    : 25.5 KiB (0%)
  116. Title                          : English (SDH)
  117. Language                       : English
  118. Default                        : No
  119. Forced                         : No
复制代码


购买主题 本主题需向作者支付 30 金币 才能浏览
dqxa 发表于 2023-12-8 05:45:54 | 显示全部楼层
谢谢楼主分享
回复

使用道具 举报

hwm54803 发表于 2023-12-8 06:16:40 | 显示全部楼层
谢谢楼主分享
回复

使用道具 举报

行者47 发表于 2023-12-8 07:27:40 | 显示全部楼层
谢谢分享 66666666
回复

使用道具 举报

v3344560 发表于 2023-12-8 07:38:10 | 显示全部楼层
谢谢楼主分享
回复

使用道具 举报

顾扣林 发表于 2023-12-8 08:35:36 | 显示全部楼层
谢谢楼主分享
回复

使用道具 举报

alittlehero 发表于 2023-12-8 12:32:03 | 显示全部楼层
谢谢楼主分享
回复

使用道具 举报

alittlehero 发表于 2023-12-8 12:35:20 | 显示全部楼层
  1. [size=2][url=forum.php?mod=redirect&goto=findpost&pid=244539&ptid=19476][color=#999999]alittlehero 发表于 2023-12-8 12:32[/color][/url][/size]
  2. 谢谢楼主分享
复制代码

谢谢楼主分享
回复

使用道具 举报

雨辰760501 发表于 2023-12-8 16:20:34 | 显示全部楼层
感谢楼主每天辛苦发帖分享!
回复

使用道具 举报

hwm54803 发表于 2023-12-9 06:52:57 | 显示全部楼层
谢谢楼主分享
回复

使用道具 举报

您需要登录后才可以回帖 登录 | 立即注册

本版积分规则

QQ|Archiver|手机版|小黑屋|聚音影社区

GMT+8, 2024-3-1 19:39 , Processed in 0.073010 second(s), 17 queries .

Powered by Discuz! X3.5

© 2001-2024 Discuz! Team.

快速回复 返回顶部 返回列表