找回密码
 立即注册
搜索
热搜: 2023 高码

[115云盘]致命的她[2023][完结剧集][4K][国语][中文字幕][4.50GB]

[复制链接]
lcw_008 发表于 2024-1-31 09:34:51 | 显示全部楼层 |阅读模式


◎译  名 致命的她
◎片  名 致命的她
◎年  代 2023
◎产  地 中国大陆
◎类  别 爱情 / 短片
◎语  言 汉语普通话
◎上映日期 2023-12-21(中国大陆)
◎豆瓣链接 https://douban.com/subject/36689461/
◎单集片长 10分钟
◎集  数 22
◎导       演  曹炳琨 / Bingkun Cao
◎演       员  杨舒婷 / Shuting Yang
      曹炳琨 / Bingkun Cao
      努尔姿叶 / Nu Er Zi Ye | 饰 姗姗
◎简  介 
  著名女主播梁静帮助丈夫王海创业成功,专心当起家庭主妇,不料婆婆嫌弃她生不出孩子,借住的表妹姗姗暗中与丈夫王海发生不正当关系,都想让她净身出户。梁静愤怒之下决定以其人之道还治其人之身,携手闺蜜强势复仇,让王海一无所有。
  1. General
  2. Unique ID                      : 219834900389188653698614434270340105736 (0xA562A96852AEE47F510AC021AE3AC608)
  3. Complete name                  : 致命的她.mkv
  4. Format                         : Matroska
  5. Format version                 : Version 4
  6. File size                      : 229 MiB
  7. Duration                       : 10 min 46 s
  8. Overall bit rate               : 2 978 kb/s
  9. Frame rate                     : 25.000 FPS
  10. Writing application            : mkvmerge v79.0 ('Funeral Pyres') 64-bit
  11. Writing library                : libebml v1.4.4 + libmatroska v1.7.1 / Lavf59.27.100

  12. Video
  13. ID                             : 1
  14. Format                         : HEVC
  15. Format/Info                    : High Efficiency Video Coding
  16. Format profile                 : Main@L5@Main
  17. Codec ID                       : V_MPEGH/ISO/HEVC
  18. Duration                       : 10 min 46 s
  19. Bit rate                       : 2 784 kb/s
  20. Width                          : 3 840 pixels
  21. Height                         : 2 160 pixels
  22. Display aspect ratio           : 16:9
  23. Frame rate mode                : Constant
  24. Frame rate                     : 25.000 FPS
  25. Color space                    : YUV
  26. Chroma subsampling             : 4:2:0
  27. Bit depth                      : 8 bits
  28. Bits/(Pixel*Frame)             : 0.013
  29. Stream size                    : 214 MiB (93%)
  30. Language                       : Chinese
  31. Default                        : Yes
  32. Forced                         : No
  33. Color range                    : Limited
  34. Color primaries                : BT.709
  35. Transfer characteristics       : BT.709
  36. Matrix coefficients            : BT.709

  37. Audio
  38. ID                             : 2
  39. Format                         : AAC LC
  40. Format/Info                    : Advanced Audio Codec Low Complexity
  41. Codec ID                       : A_AAC-2
  42. Duration                       : 10 min 46 s
  43. Bit rate                       : 192 kb/s
  44. Channel(s)                     : 2 channels
  45. Channel layout                 : L R
  46. Sampling rate                  : 44.1 kHz
  47. Frame rate                     : 43.066 FPS (1024 SPF)
  48. Compression mode               : Lossy
  49. Stream size                    : 14.8 MiB (6%)
  50. Title                          : Mandarin [AAC2.0]
  51. Language                       : Chinese
  52. Default                        : No
  53. Forced                         : No
复制代码


购买主题 本主题需向作者支付 5 金币 才能浏览
顾扣林 发表于 2024-1-31 09:58:47 | 显示全部楼层
谢谢楼主分享
回复

使用道具 举报

136196183@qq.cm 发表于 2024-1-31 10:22:08 | 显示全部楼层
感谢楼主分享
回复

使用道具 举报

136196183@qq.cm 发表于 2024-1-31 12:57:42 | 显示全部楼层
感谢楼主分享
回复

使用道具 举报

雨辰760501 发表于 2024-1-31 15:54:49 | 显示全部楼层
感谢楼主每天发帖分享,楼主辛苦了!
回复

使用道具 举报

ssgps 发表于 2024-1-31 23:18:17 | 显示全部楼层
谢谢分享!!!!
回复

使用道具 举报

baona 发表于 2024-2-1 14:57:41 | 显示全部楼层
谢谢楼主分享
回复

使用道具 举报

baona 发表于 2024-2-5 10:39:15 | 显示全部楼层
谢谢楼主分享
回复

使用道具 举报

您需要登录后才可以回帖 登录 | 立即注册

本版积分规则

QQ|Archiver|手机版|小黑屋|聚音影社区

GMT+8, 2024-4-21 07:25 , Processed in 0.071637 second(s), 17 queries .

Powered by Discuz! X3.5

© 2001-2024 Discuz! Team.

快速回复 返回顶部 返回列表