找回密码
 立即注册
搜索
热搜: 2023 高码

[115云盘]我知道我爱你[2023][完结剧集][4K][国语][中文字幕][11.53GB]

[复制链接]
lcw_008 发表于 2024-1-31 12:15:28 | 显示全部楼层 |阅读模式


◎译  名 Wo zhi dao wo ai ni / 中国版春夜 / 我知道我爱你
◎片  名 我知道我爱你
◎年  代 2023
◎产  地 中国大陆
◎类  别 剧情
◎语  言 汉语普通话
◎上映日期 2023-12-25(中国大陆)
◎IMDb评分  8.4/10 from 9 users
◎IMDb链接  https://www.imdb.com/title/tt30577526/
◎豆瓣评分 6.3/10 from 17495 users
◎豆瓣链接   https://movie.douban.com/subject/35693264/
◎单集片长 45分钟
◎集  数 24
◎导       演  吕聿来 / Yulai Lü
◎演       员  张晚意 / Wanyi Zhang | 饰 赵晋
      孙怡 / Yi Sun | 饰 许诺
      袁文康 / Wenkang Yuan | 饰 彭宇安
      吴优 / You Wu | 饰 施然
      尹智玄 / Zhixuan Yin | 饰 徐阳
      李乐 / Le Li
      顾语涵 / Yuhan Gu | 饰 赵秦
      王玥晞 / Yuexi Wang | 饰 田沐楚
      马吟吟 / Yinyin Ma | 饰 丛珊
      田淼 / Miao Tian | 饰 许若男
      马东延 / Dongyan Ma | 饰 任军
      王大宇 / Dayu Wang | 饰 赵有志
      张弓 / Gong Zhang | 饰 彭国斌
      周显欣 / Xianxin Zhou | 饰 赵晋母亲
      麻骏 / Jun Ma | 饰 丛林
      牟紫 / Zi Mu
      张晗 / Han Zhang
      刘蕙仪 / Huiyi Liu
      李乐 / Le Li | 饰 大浩
◎编       剧  高铭谦 / Mingqian Gao
      吕聿来 / Yulai Lü
◎制  片  人  李黎明
      高铭谦 / Mingqian Gao
      陈岩 / Yan Chen
◎简  介 
  一位是十年恋爱无果的女花艺师许诺,一位是背负家庭重担的宠物医生赵晋,两个大龄青年同样遭受父母逼婚、亲朋劝婚、媒妁催婚。当两人的生活回归到原点,却又不知该如何重启时,他们相识了。但是身心疲惫的许诺与家境复杂的赵晋有着难以突破的隔阂,朋友的误会和父母的阻拦让他们的爱情面临种种坎坷。赵晋对许诺无微不至的关怀让许诺感受到了久未有过的温暖和坚定,重拾对爱情的信心和渴望,并将这份爱融入花艺创作中,妙手生花,成为一名知名花艺师。许诺的出现也渐渐抚平了赵晋多年的情伤,让赵晋感受到久违的幸福,两人通过彼此的真爱克服重重困难与阻碍,相知相恋相依,共同成长,携手步入婚姻的殿堂。
  1. General
  2. Unique ID                      : 71696220965655845741521963087229219370 (0x35F0309C59AC6D86E4989E5161BDF22A)
  3. Complete name                  : 我知道我爱你.mkv
  4. Format                         : Matroska
  5. Format version                 : Version 4
  6. File size                      : 528 MiB
  7. Duration                       : 43 min 11 s
  8. Overall bit rate               : 1 707 kb/s
  9. Frame rate                     : 25.000 FPS
  10. Encoded date                   : 2023-12-25 09:58:18 UTC
  11. Writing application            : mkvmerge v81.0 ('Milliontown') 64-bit
  12. Writing library                : libebml v1.4.4 + libmatroska v1.7.1 / Lavf60.6.100

  13. Video
  14. ID                             : 1
  15. Format                         : HEVC
  16. Format/Info                    : High Efficiency Video Coding
  17. Format profile                 : Main@L5@Main
  18. Codec ID                       : V_MPEGH/ISO/HEVC
  19. Duration                       : 43 min 11 s
  20. Bit rate                       : 1 324 kb/s
  21. Width                          : 3 840 pixels
  22. Height                         : 1 606 pixels
  23. Display aspect ratio           : 2.39:1
  24. Frame rate mode                : Constant
  25. Frame rate                     : 25.000 FPS
  26. Color space                    : YUV
  27. Chroma subsampling             : 4:2:0
  28. Bit depth                      : 8 bits
  29. Bits/(Pixel*Frame)             : 0.009
  30. Stream size                    : 409 MiB (78%)
  31. Writing library                : Tencent-V265-1.6.9.1-p1k184g16lh64f4ra1.
  32. Default                        : Yes
  33. Forced                         : No
  34. Color range                    : Limited
  35. Color primaries                : BT.709
  36. Transfer characteristics       : BT.709
  37. Matrix coefficients            : BT.709

  38. Audio #1
  39. ID                             : 2
  40. Format                         : E-AC-3
  41. Format/Info                    : Enhanced AC-3
  42. Commercial name                : Dolby Digital Plus
  43. Codec ID                       : A_EAC3
  44. Duration                       : 43 min 11 s
  45. Bit rate mode                  : Constant
  46. Bit rate                       : 256 kb/s
  47. Channel(s)                     : 2 channels
  48. Channel layout                 : L R
  49. Sampling rate                  : 48.0 kHz
  50. Frame rate                     : 31.250 FPS (1536 SPF)
  51. Compression mode               : Lossy
  52. Delay relative to video        : -42 ms
  53. Stream size                    : 79.1 MiB (15%)
  54. Title                          : Mandarin
  55. Language                       : Chinese
  56. Service kind                   : Complete Main
  57. Default                        : Yes
  58. Forced                         : No

  59. Audio #2
  60. ID                             : 3
  61. Format                         : AAC LC
  62. Format/Info                    : Advanced Audio Codec Low Complexity
  63. Codec ID                       : A_AAC-2
  64. Duration                       : 43 min 11 s
  65. Bit rate                       : 125 kb/s
  66. Channel(s)                     : 2 channels
  67. Channel layout                 : L R
  68. Sampling rate                  : 48.0 kHz
  69. Frame rate                     : 46.875 FPS (1024 SPF)
  70. Compression mode               : Lossy
  71. Delay relative to video        : -42 ms
  72. Stream size                    : 38.7 MiB (7%)
  73. Title                          : Mandarin
  74. Language                       : Chinese
  75. Default                        : No
  76. Forced                         : No
复制代码


购买主题 已有 1 人购买  本主题需向作者支付 10 金币 才能浏览
136196183@qq.cm 发表于 2024-1-31 12:26:37 | 显示全部楼层
感谢楼主分享
回复

使用道具 举报

雨辰760501 发表于 2024-1-31 15:46:25 | 显示全部楼层
感谢楼主每天发帖分享,楼主辛苦了!
回复

使用道具 举报

ssgps 发表于 2024-1-31 23:28:08 | 显示全部楼层
谢谢分享!!!!
回复

使用道具 举报

顾扣林 发表于 2024-2-2 09:09:00 | 显示全部楼层
谢谢楼主分享
回复

使用道具 举报

136196183@qq.cm 发表于 2024-2-2 11:16:30 | 显示全部楼层
感谢楼主分享
回复

使用道具 举报

王者荣耀战队 发表于 2024-2-3 10:50:31 | 显示全部楼层
感谢楼主分享
回复

使用道具 举报

您需要登录后才可以回帖 登录 | 立即注册

本版积分规则

QQ|Archiver|手机版|小黑屋|聚音影社区

GMT+8, 2024-4-21 06:54 , Processed in 0.068889 second(s), 17 queries .

Powered by Discuz! X3.5

© 2001-2024 Discuz! Team.

快速回复 返回顶部 返回列表