找回密码
 立即注册
搜索
热搜: 2023 高码

[115云盘]阴阳镇怪谈[2024][完结剧集][4K][国语][中文字幕][7.23GB]

[复制链接]
lcw_008 发表于 2024-1-31 12:37:02 | 显示全部楼层 |阅读模式


◎译  名 Yin-Yang Town Strange Talk
◎片  名 阴阳镇怪谈
◎年  代 2024
◎产  地 中国大陆
◎类  别 剧情 / 悬疑 / 惊悚
◎语  言 汉语普通话
◎上映日期 2024-01-06(中国大陆)
◎豆瓣链接 https://douban.com/subject/36701000/
◎单集片长 10分钟
◎集  数 24
◎演       员  孙熹之 / Xizhi Sun
      陆文涛 / Wentao Lu | 饰 李思泽
      邓诗韵 / Shiyun Deng
◎编       剧  陈昕 / Xin Chen
◎简  介 
  程念一跟随李思泽来到李思泽的故乡阴阳镇做客,两人在阴阳镇遇到鬼神邪说,一桩桩离奇怪谈事件背后实则是难以捉摸的诡谲人心。待真相层层揭开,程念一和李思泽发现笼罩在鬼神谣言邪说之下的阴阳镇隐藏着更大秘密,经过重重阻碍,两人联手抓到凶手,拆除鬼母庙,阴阳镇的生活也因此恢复了安和宁静。
  1. General
  2. Unique ID                      : 271325489525454698543890633306901457148 (0xCC1F63746CE3B633A31A5340B65A28FC)
  3. Complete name                  : 阴阳镇怪谈.mkv
  4. Format                         : Matroska
  5. Format version                 : Version 4
  6. File size                      : 634 MiB
  7. Duration                       : 12 min 8 s
  8. Overall bit rate               : 7 300 kb/s
  9. Frame rate                     : 25.000 FPS
  10. Encoded date                   : 2024-01-06 05:37:05 UTC
  11. Writing application            : mkvmerge v81.0 ('Milliontown') 64-bit
  12. Writing library                : libebml v1.4.4 + libmatroska v1.7.1 / Lavf60.6.100

  13. Video
  14. ID                             : 1
  15. Format                         : HEVC
  16. Format/Info                    : High Efficiency Video Coding
  17. Format profile                 : Main@L5@Main
  18. Codec ID                       : V_MPEGH/ISO/HEVC
  19. Duration                       : 12 min 8 s
  20. Bit rate                       : 6 917 kb/s
  21. Width                          : 3 840 pixels
  22. Height                         : 1 632 pixels
  23. Display aspect ratio           : 2.35:1
  24. Frame rate mode                : Constant
  25. Frame rate                     : 25.000 FPS
  26. Color space                    : YUV
  27. Chroma subsampling             : 4:2:0
  28. Bit depth                      : 8 bits
  29. Bits/(Pixel*Frame)             : 0.044
  30. Stream size                    : 601 MiB (95%)
  31. Writing library                : Tencent-V265-1.6.9.1-p1k184g16lh64f4ra1.
  32. Default                        : Yes
  33. Forced                         : No
  34. Color range                    : Limited
  35. Color primaries                : BT.709
  36. Transfer characteristics       : BT.709
  37. Matrix coefficients            : BT.709

  38. Audio #1
  39. ID                             : 2
  40. Format                         : E-AC-3
  41. Format/Info                    : Enhanced AC-3
  42. Commercial name                : Dolby Digital Plus
  43. Codec ID                       : A_EAC3
  44. Duration                       : 12 min 8 s
  45. Bit rate mode                  : Constant
  46. Bit rate                       : 256 kb/s
  47. Channel(s)                     : 2 channels
  48. Channel layout                 : L R
  49. Sampling rate                  : 48.0 kHz
  50. Frame rate                     : 31.250 FPS (1536 SPF)
  51. Compression mode               : Lossy
  52. Delay relative to video        : -42 ms
  53. Stream size                    : 22.2 MiB (4%)
  54. Title                          : Mandarin
  55. Language                       : Chinese
  56. Service kind                   : Complete Main
  57. Default                        : Yes
  58. Forced                         : No

  59. Audio #2
  60. ID                             : 3
  61. Format                         : AAC LC
  62. Format/Info                    : Advanced Audio Codec Low Complexity
  63. Codec ID                       : A_AAC-2
  64. Duration                       : 12 min 8 s
  65. Bit rate                       : 125 kb/s
  66. Channel(s)                     : 2 channels
  67. Channel layout                 : L R
  68. Sampling rate                  : 48.0 kHz
  69. Frame rate                     : 46.875 FPS (1024 SPF)
  70. Compression mode               : Lossy
  71. Delay relative to video        : -42 ms
  72. Stream size                    : 10.9 MiB (2%)
  73. Title                          : Mandarin
  74. Language                       : Chinese
  75. Default                        : No
  76. Forced                         : No
复制代码


购买主题 本主题需向作者支付 5 金币 才能浏览
jonyzx 发表于 2024-1-31 14:38:11 | 显示全部楼层
谢谢楼主分享
回复

使用道具 举报

雨辰760501 发表于 2024-1-31 15:40:02 | 显示全部楼层
感谢楼主每天发帖分享,楼主辛苦了!
回复

使用道具 举报

难得吃亏 发表于 2024-1-31 17:24:37 | 显示全部楼层
谢谢楼主分享
回复

使用道具 举报

ssgps 发表于 2024-1-31 23:36:25 | 显示全部楼层
谢谢分享!!!!
回复

使用道具 举报

baona 发表于 2024-2-1 14:01:08 | 显示全部楼层
谢谢楼主分享
回复

使用道具 举报

顾扣林 发表于 2024-2-2 09:00:17 | 显示全部楼层
谢谢楼主分享
回复

使用道具 举报

136196183@qq.cm 发表于 2024-2-2 09:27:41 | 显示全部楼层
感谢楼主分享
回复

使用道具 举报

baona 发表于 2024-2-5 10:03:53 | 显示全部楼层
谢谢楼主分享
回复

使用道具 举报

您需要登录后才可以回帖 登录 | 立即注册

本版积分规则

QQ|Archiver|手机版|小黑屋|聚音影社区

GMT+8, 2024-4-21 06:57 , Processed in 0.148999 second(s), 17 queries .

Powered by Discuz! X3.5

© 2001-2024 Discuz! Team.

快速回复 返回顶部 返回列表