找回密码
 立即注册
搜索
热搜: 2023 高码

[115云盘]大陆酒店[2023][完结剧集][4K高码60帧][英语][内嵌简英双语字幕][46.66GB]

[复制链接]
lcw_008 发表于 2024-2-1 23:55:46 | 显示全部楼层 |阅读模式
◎译  名 大陆酒店 / 疾速追杀衍生剧 / 刺客旅馆 / 洲际酒店 / 刺客旅馆:捍卫任务世界 / 大陆饭店:来自约翰维克的世界 / The Continental
◎片  名 The Continental: From the World of John Wick
◎年  代 2023
◎产  地 美国
◎类  别 动作 / 惊悚 / 犯罪
◎语  言 英语
◎上映日期 2023-09-22(美国)
◎IMDb评分  7.3/10 from 22315 users
◎IMDb链接  https://www.imdb.com/title/tt6486762/
◎豆瓣评分 7.4/10 from 7118 users
◎豆瓣链接   https://movie.douban.com/subject/26967910/
◎单集片长 90分钟
◎集  数 3
◎导       演  艾尔伯特·休斯 / Albert Hughes
      夏洛特·布伦斯特伦 / Charlotte Brandstrom
      查德·斯塔赫斯基 / Chad Stahelski
◎演       员  科林·伍德尔 / Colin Woodell | 饰 Young Winston Scott
      梅尔·吉布森 / Mel Gibson | 饰 Cormac
      彼得·格林纳 / Peter Greene | 饰 Uncle Charlie
      本·罗伯森 / Ben Robson | 饰 Frankie
      阿约梅德·阿德根 / Ayomide Adegun | 饰 Charon
      凯特·绒 / Nhung Kate | 饰 Yen
      凯蒂·麦克格雷斯 / Katie McGrath | 饰 The Adjudicator
      杰西卡·阿莱恩 / Jessica Allain | 饰 Lou
      杰里米·博布 / Jeremy Bobb | 饰 Mayhew
      亚当·沙皮罗 / Adam Shapiro | 饰 Lemmy
      萨莱·加内特 / Sallay Garnett | 饰 The Concierge
      雷·迈克金农 / Ray McKinnon | 饰 Jenkins
      玛丽娜·马泽帕 / Marina Mazepa | 饰 Gretel
      维拉格·巴拉尼 / Virág Bárány | 饰 The Tailor
      米歇尔·普拉达 / Mishel Prada | 饰 KD
      克莱尔·库珀 / Claire Cooper | 饰 Mrs. Davenport
      李丹 / Dan Li | 饰 Orphan Master
      西蒙·万 / Simon Wan  | 饰 Frankies Partner
      纳奥米·维尔特纳 / Naomi Wirthner   | 饰 Fake Mazie
      杰瑞米·惠勒 / Jeremy Wheeler | 饰 Safecracker
      休伯特·珀恩特·杜鲁尔 / Hubert Point-Du Jour | 饰 Miles
      克里斯·雷曼 / Chris Ryman | 饰 Ronnie
      马特·布鲁尔 / Matt Brewer | 饰 Cal
      马克布·穆萨什 / Mark Musashi | 饰 Hansel
◎编       剧  格雷格·库利奇 / Greg Coolidge
      德里克·科尔斯塔 / Derek Kolstad
      肖恩·西蒙斯 / Shawn Simmons
      柯克·沃德 / Kirk Ward
      克里斯·柯林斯 / Chris Collins
      肯·克里斯滕森 / Ken Kristensen
      查德·斯塔赫斯基 / Chad Stahelski
◎制  片  人  基努·里维斯 / Keanu Reeves
      查德·斯塔赫斯基 / Chad Stahelski
◎简  介 
  《大陆酒店》以20世纪70年代的纽约市为背景,探索了“约翰·威克”宇宙中标志性的刺客旅馆的起源,通过年轻的温斯顿·斯科特的眼睛和行动看到了这一点。
  1. General
  2. Unique ID                      : 271694470226467726863077218239933468690 (0xCC66739B9F4FE9FF27C512BA28465012)
  3. Complete name                  : 大陆酒店.mkv
  4. Format                         : Matroska
  5. Format version                 : Version 4
  6. File size                      : 15.2 GiB
  7. Duration                       : 1 h 24 min
  8. Overall bit rate               : 25.6 Mb/s
  9. Frame rate                     : 60.000 FPS
  10. Encoded date                   : 2024-01-17 11:48:39 UTC
  11. Writing application            : mkvmerge v79.0 ('Funeral Pyres') 64-bit
  12. Writing library                : libebml v1.4.4 + libmatroska v1.7.1

  13. Video
  14. ID                             : 1
  15. Format                         : HEVC
  16. Format/Info                    : High Efficiency Video Coding
  17. Format profile                 : Main 10@L5.1@Main
  18. Codec ID                       : V_MPEGH/ISO/HEVC
  19. Duration                       : 1 h 24 min
  20. Bit rate                       : 24.9 Mb/s
  21. Width                          : 3 840 pixels
  22. Height                         : 1 600 pixels
  23. Display aspect ratio           : 2.40:1
  24. Frame rate mode                : Constant
  25. Frame rate                     : 60.000 FPS
  26. Color space                    : YUV
  27. Chroma subsampling             : 4:2:0
  28. Bit depth                      : 10 bits
  29. Bits/(Pixel*Frame)             : 0.068
  30. Stream size                    : 14.8 GiB (97%)
  31. Default                        : Yes
  32. Forced                         : No
  33. Color range                    : Limited
  34. Color primaries                : BT.709
  35. Transfer characteristics       : BT.709
  36. Matrix coefficients            : BT.709

  37. Audio #1
  38. ID                             : 2
  39. Format                         : E-AC-3
  40. Format/Info                    : Enhanced AC-3
  41. Commercial name                : Dolby Digital Plus
  42. Codec ID                       : A_EAC3
  43. Duration                       : 1 h 24 min
  44. Bit rate mode                  : Constant
  45. Bit rate                       : 448 kb/s
  46. Channel(s)                     : 6 channels
  47. Channel layout                 : L R C LFE Ls Rs
  48. Sampling rate                  : 48.0 kHz
  49. Frame rate                     : 31.250 FPS (1536 SPF)
  50. Compression mode               : Lossy
  51. Stream size                    : 272 MiB (2%)
  52. Title                          : [DDP5.1]
  53. Language                       : English
  54. Service kind                   : Complete Main
  55. Default                        : Yes
  56. Forced                         : No

  57. Audio #2
  58. ID                             : 3
  59. Format                         : AAC LC
  60. Format/Info                    : Advanced Audio Codec Low Complexity
  61. Codec ID                       : A_AAC-2
  62. Duration                       : 1 h 24 min
  63. Bit rate                       : 256 kb/s
  64. Channel(s)                     : 2 channels
  65. Channel layout                 : L R
  66. Sampling rate                  : 44.1 kHz
  67. Frame rate                     : 43.066 FPS (1024 SPF)
  68. Compression mode               : Lossy
  69. Stream size                    : 155 MiB (1%)
  70. Title                          : [AAC2.0]
  71. Language                       : English
  72. Default                        : No
  73. Forced                         : No
复制代码


购买主题 本主题需向作者支付 25 金币 才能浏览
dqxa 发表于 2024-2-2 04:36:08 | 显示全部楼层
谢谢楼主分享
回复

使用道具 举报

hwm54803 发表于 2024-2-2 05:48:48 | 显示全部楼层
谢谢楼主分享
回复

使用道具 举报

136196183@qq.cm 发表于 2024-2-2 07:47:38 | 显示全部楼层
感谢楼主分享
回复

使用道具 举报

顾扣林 发表于 2024-2-2 08:49:09 | 显示全部楼层
谢谢楼主分享
回复

使用道具 举报

ssgps 发表于 2024-2-2 18:23:48 | 显示全部楼层
谢谢分享!!
回复

使用道具 举报

雨辰760501 发表于 2024-2-3 16:07:05 | 显示全部楼层
感谢楼主每天发帖分享,楼主辛苦了!
回复

使用道具 举报

您需要登录后才可以回帖 登录 | 立即注册

本版积分规则

QQ|Archiver|手机版|小黑屋|聚音影社区

GMT+8, 2024-4-21 06:36 , Processed in 0.069334 second(s), 17 queries .

Powered by Discuz! X3.5

© 2001-2024 Discuz! Team.

快速回复 返回顶部 返回列表