找回密码
 立即注册
搜索
热搜: 2023 高码

[115云盘]超级宝贝JOJO 第一季[2019][完结剧集][4K高码][国语][中文字幕][33.08GB]

[复制链接]
lcw_008 发表于 2024-2-3 14:00:42 | 显示全部楼层 |阅读模式


◎译  名 超级宝贝JOJO
◎片  名 超级宝贝JOJO
◎年  代 2019
◎产  地 中国大陆
◎类  别 儿童
◎语  言 汉语普通话
◎上映日期 2019(中国大陆)
◎豆瓣评分 7.9/10 from 519 users
◎豆瓣链接   https://movie.douban.com/subject/35263442/
◎单集片长 3分钟
◎集  数 104
◎简  介 
  适龄启蒙,亲子共学。宝宝的成长从很多个第一次开始,第一次学说话、第一次学走路。《超级宝贝JOJO》分龄儿歌,专为13岁宝宝设计,以小宝宝JOJO的成长生活中常见场景趣事吸引宝宝模仿学习,激发宝宝的语言表达与探索欲。帮助宝宝适龄学习与认识世界,支援父母轻松育儿,鼓励家长一起欣赏,陪伴孩子快乐成长。
  1. General
  2. Complete name                  : 超级宝贝JOJO 第一季.mp4
  3. Format                         : MPEG-4
  4. Format profile                 : Base Media
  5. Codec ID                       : isom (isom/iso2/mp41)
  6. File size                      : 280 MiB
  7. Duration                       : 2 min 34 s
  8. Overall bit rate               : 15.2 Mb/s
  9. Frame rate                     : 25.000 FPS
  10. Movie name                     : 超级宝贝JOJO (2019)
  11. Writing application            : Lavf59.16.100
  12. Copyright                      : HD Dolby
  13. Cover                          : Yes
  14. Comment                        : 8E12C0A578AE317E246ABFFC7679CD5C

  15. Video
  16. ID                             : 1
  17. Format                         : HEVC
  18. Format/Info                    : High Efficiency Video Coding
  19. Format profile                 : Main 10@L5@Main
  20. Codec ID                       : hev1
  21. Codec ID/Info                  : High Efficiency Video Coding
  22. Duration                       : 2 min 34 s
  23. Bit rate                       : 15.0 Mb/s
  24. Width                          : 3 840 pixels
  25. Height                         : 2 160 pixels
  26. Display aspect ratio           : 16:9
  27. Frame rate mode                : Constant
  28. Frame rate                     : 25.000 FPS
  29. Color space                    : YUV
  30. Chroma subsampling             : 4:2:0
  31. Bit depth                      : 10 bits
  32. Bits/(Pixel*Frame)             : 0.073
  33. Stream size                    : 276 MiB (99%)
  34. Color range                    : Limited
  35. Color primaries                : BT.709
  36. Transfer characteristics       : BT.709
  37. Matrix coefficients            : BT.709
  38. Codec configuration box        : hvcC

  39. Audio
  40. ID                             : 2
  41. Format                         : AAC LC
  42. Format/Info                    : Advanced Audio Codec Low Complexity
  43. Codec ID                       : mp4a-40-2
  44. Duration                       : 2 min 34 s
  45. Bit rate mode                  : Constant
  46. Bit rate                       : 192 kb/s
  47. Channel(s)                     : 2 channels
  48. Channel layout                 : L R
  49. Sampling rate                  : 44.1 kHz
  50. Frame rate                     : 43.066 FPS (1024 SPF)
  51. Compression mode               : Lossy
  52. Stream size                    : 3.48 MiB (1%)
  53. Language                       : Chinese
  54. Default                        : Yes
  55. Alternate group                : 1
复制代码


购买主题 本主题需向作者支付 20 金币 才能浏览
雨辰760501 发表于 2024-2-3 16:02:16 | 显示全部楼层
感谢楼主每天发帖分享,楼主辛苦了!
回复

使用道具 举报

顾扣林 发表于 2024-2-4 11:18:12 | 显示全部楼层
谢谢楼主分享
回复

使用道具 举报

您需要登录后才可以回帖 登录 | 立即注册

本版积分规则

QQ|Archiver|手机版|小黑屋|聚音影社区

GMT+8, 2024-4-21 07:04 , Processed in 0.069086 second(s), 17 queries .

Powered by Discuz! X3.5

© 2001-2024 Discuz! Team.

快速回复 返回顶部 返回列表