找回密码
 立即注册
搜索
热搜: 2023 高码

[115云盘]宝贝赳赳 第四季[2022][完结剧集][4K高码][国语][中文字幕][13.61GB]

[复制链接]
lcw_008 发表于 2024-2-3 14:28:20 | 显示全部楼层 |阅读模式


◎译  名 宝贝赳赳 第四季 / 超级宝贝JOJO 第四季
◎片  名 Super JoJo 第四季
◎年  代 2022
◎产  地 中国大陆
◎类  别 动画 / 儿童
◎语  言 汉语普通话
◎上映日期 2022(中国大陆)
◎豆瓣链接 https://douban.com/subject/36188878/
◎单集片长 3分钟
◎集  数 30
◎编       剧  宝拉·巴顿 / Paula Patton
◎简  介 
  适龄启蒙,亲子共读。通过爸爸妈妈给孩子们讲绘本而展开,从寓言到成语、世界童话到民间故事;每一个都能汲取正向品格。《龟兔赛跑》中学会坚持、不骄傲,《亡羊补牢》中学会知错就改。同时为亲子共处与阅读提供参考。
  1. General
  2. Complete name                  : 宝贝赳赳 第四季.mp4
  3. Format                         : MPEG-4
  4. Format profile                 : Base Media
  5. Codec ID                       : isom (isom/iso2/mp41)
  6. File size                      : 456 MiB
  7. Duration                       : 4 min 13 s
  8. Overall bit rate               : 15.1 Mb/s
  9. Frame rate                     : 25.000 FPS
  10. Movie name                     : 宝贝赳赳 第四季(2022)
  11. Recorded date                  : 2023-10-28 00:42:07.4615919+08:00
  12. Writing application            : Lavf59.16.100
  13. Copyright                      : HD Dolby
  14. Cover                          : Yes
  15. Comment                        : 8E12C0A578AE317E246ABFFC7679CD5C

  16. Video
  17. ID                             : 1
  18. Format                         : HEVC
  19. Format/Info                    : High Efficiency Video Coding
  20. Format profile                 : Main 10@L5@Main
  21. Codec ID                       : hev1
  22. Codec ID/Info                  : High Efficiency Video Coding
  23. Duration                       : 4 min 13 s
  24. Bit rate                       : 14.9 Mb/s
  25. Width                          : 3 840 pixels
  26. Height                         : 2 160 pixels
  27. Display aspect ratio           : 16:9
  28. Frame rate mode                : Constant
  29. Frame rate                     : 25.000 FPS
  30. Color space                    : YUV
  31. Chroma subsampling             : 4:2:0
  32. Bit depth                      : 10 bits
  33. Bits/(Pixel*Frame)             : 0.072
  34. Stream size                    : 450 MiB (99%)
  35. Color range                    : Limited
  36. Color primaries                : BT.709
  37. Transfer characteristics       : BT.709
  38. Matrix coefficients            : BT.709
  39. Codec configuration box        : hvcC

  40. Audio
  41. ID                             : 2
  42. Format                         : AAC LC
  43. Format/Info                    : Advanced Audio Codec Low Complexity
  44. Codec ID                       : mp4a-40-2
  45. Duration                       : 4 min 13 s
  46. Bit rate mode                  : Constant
  47. Bit rate                       : 192 kb/s
  48. Channel(s)                     : 2 channels
  49. Channel layout                 : L R
  50. Sampling rate                  : 44.1 kHz
  51. Frame rate                     : 43.066 FPS (1024 SPF)
  52. Compression mode               : Lossy
  53. Stream size                    : 5.72 MiB (1%)
  54. Language                       : Chinese
  55. Default                        : Yes
  56. Alternate group                : 1
复制代码


购买主题 本主题需向作者支付 10 金币 才能浏览
雨辰760501 发表于 2024-2-3 15:52:33 | 显示全部楼层
感谢楼主每天发帖分享,楼主辛苦了!
回复

使用道具 举报

顾扣林 发表于 2024-2-4 10:56:39 | 显示全部楼层
谢谢楼主分享
回复

使用道具 举报

136196183@qq.cm 发表于 2024-2-8 11:27:39 | 显示全部楼层
感谢楼主分享
回复

使用道具 举报

您需要登录后才可以回帖 登录 | 立即注册

本版积分规则

QQ|Archiver|手机版|小黑屋|聚音影社区

GMT+8, 2024-4-21 07:36 , Processed in 0.070525 second(s), 17 queries .

Powered by Discuz! X3.5

© 2001-2024 Discuz! Team.

快速回复 返回顶部 返回列表