找回密码
 立即注册
搜索
热搜: 2023 高码

[115云盘]英国式丑闻[2018][完结剧集][4KHDR][英语][内嵌简繁英字幕][23.56GB]

  [复制链接]
lcw_008 发表于 2024-6-4 00:13:49 | 显示全部楼层 |阅读模式


◎译  名 英国式丑闻 / 英式丑闻
◎片  名 A Very English Scandal
◎年  代 2018
◎产  地 英国
◎类  别 剧情 / 传记 / 犯罪
◎语  言 英语
◎上映日期 2018-05-20(英国)
◎IMDb评分  7.7/10 from 16370 users
◎IMDb链接  https://www.imdb.com/title/tt6938856/
◎豆瓣评分 8.8/10 from 37328 users
◎豆瓣链接   https://movie.douban.com/subject/27038857/
◎单集片长 60分钟
◎集  数 3
◎导       演  斯蒂芬·弗雷斯 / Stephen Frears
◎演       员  休·格兰特 / Hugh Grant | 饰 Jeremy Thorpe
      本·卫肖 / Ben Whishaw | 饰 Norman Scott
      阿历克斯·杰宁斯 / Alex Jennings | 饰 Peter Bessell
      安德鲁·弗伦奇 / Andrew French | 饰 Sergeant at Arms
      派翠西亚·霍吉 / Patricia Hodge | 饰 Ursula Thorpe
      娜奥米·巴特里克 / Naomi Battrick | 饰 Diana Stainton
     尼克·马利诺夫斯基 / Nick Malinowski | 饰 Returning Officer
      摩根·华金斯 / Morgan Watkins | 饰 Mike Steele
      杰森·沃特金斯 / Jason Watkins | 饰 Emlyn Hooson
      艾丽丝·奥尔尤因 / Alice Orr-Ewing | 饰 Caroline Allpass
      克里斯·阿什比 / Chris Ashby | 饰 Messenger
      尼古拉斯·布兰 / Nicholas Blane | 饰 Norman Van De Vater
      安东尼·奥唐纳 / Anthony O'Donnell | 饰 Leo Abse
      约翰·贝特 / John Bett | 饰 Lord Kilmuir
     戴维·鲍姆伯 / David Bamber | 饰 Earl of Arran
      苏珊·伍尔德里奇 / Susan Wooldridge | 饰 Countess of Arran
      本·摩尔 / Ben Moor | 饰 BBC Radio Interviewer
      米歇尔·福克斯 / Michelle Fox | 饰 Lyn
      达利尔·麦克科马克 / Daryl McCormack | 饰 Luke Mackenzie
      迈克尔·卡尔金 / Michael Culkin | 饰 Reginald Maudling
      莫妮卡·杜兰 / Monica Dolan | 饰 Marion Thorpe
      米歇尔·多特里斯 / Michele Dotrice | 饰 Edna Friendship
      戴凡·德威 / Dyfan Dwyfor | 饰 George Deakin
      布莱克·哈里森 / Blake Harrison | 饰 Andrew Newton
      保罗·希尔顿 / Paul Hilton | 饰 David Holmes
      瑞斯·派瑞·琼斯 / Rhys Parry Jones | 饰 John Le Mesurier
      伊芙·迈勒斯 / Eve Myles | 饰 Gwen Parry-Jones
      乔纳森·海德 / Jonathan Hyde | 饰 David Napley
      阿德里安·斯卡伯勒 / Adrian Scarborough | 饰 George Carman
      丹尼尔·韦曼 / Daniel Weyman | 饰 BBC TV Reporter
      丹尼·派伊 / Dannie Pye | 饰 Ken
◎编       剧  拉塞尔·T·戴维斯 / Russell T. Davies
      约翰·普雷斯顿 / John Preston
◎制  片  人  斯蒂芬·弗雷斯 / Stephen Frears
◎音       乐  默里·戈尔德 / Murray Gold
◎服       装  苏珊妮·凯夫 / Suzanne Cave
◎简  介 
  BBC One的3集迷你剧《英式丑闻 A Very English Scandal》根据Jeremy Thorpe的真人真事所改篇。在60年代末英国才刚刚对同性恋除罪化,而当时作为自由党领袖,以及百年来英国政党中最年轻的领袖,Jeremy Thorpe(Hugh Grant饰)隐藏着一个秘密 – 他有一个前同性恋人 Norman Scott(Ben Whishaw饰)。
  只要Norman Scott还活着,这对Jeremy Thorpe来说都是威胁,因此他策划谋杀前度,但最终不但不成事,还被对方指控意图谋杀。此事令Jeremy Thorpe成为首位因谋杀案而受审判的英国政治家,更被公众得知他的同志身份;最终Jeremy Thorpe虽然被判无罪,但也结束了政治生涯。
  该剧由Stephen Frears执导﹑Russell T. Davies负责执笔。
◎获奖情况 
      第76届金球奖 (2019)
  电视类 最佳限定剧/电视电影(提名)
  电视类 限定剧/电视电影最佳男主角(提名) 休·格兰特
  电视类 最佳男配角 本·卫肖
      第71届黄金时段艾美奖 (2019)
  限定剧/迷你剧/电视电影类 最佳男主角(提名) 休·格兰特
  限定剧/迷你剧/电视电影类 最佳男配角 本·卫肖
  限定剧/迷你剧/电视电影类 最佳导演(提名) 斯蒂芬·弗雷斯
  限定剧/迷你剧/电视电影类 最佳编剧(提名) 拉塞尔·T·戴维斯
      第25届美国演员工会奖 (2019)
  电视奖 电视电影/迷你剧最佳男演员(提名) 休·格兰特
      第9届美国评论家选择电视奖 (2019)
  最佳限定剧(提名)
  电视电影/限定剧最佳男主角(提名) 休·格兰特
  电视电影/限定剧最佳男配角 本·卫肖
      第23届金卫星奖 (2019)
  电视部门 最佳迷你剧/电视电影(提名)
  电视部门 迷你剧/电视电影最佳男主角(提名) 休·格兰特
  电视部门 最佳男配角(提名) 本·卫肖
  1. General
  2. Unique ID                      : 317285540947199621641924564953855751941 (0xEEB2F8F0B8EB53E3E75090D7D8DCF705)
  3. Complete name                  : 英国式丑闻(4KHDR).mkv
  4. Format                         : Matroska
  5. Format version                 : Version 4
  6. File size                      : 7.86 GiB
  7. Duration                       : 55 min 58 s
  8. Overall bit rate               : 20.1 Mb/s
  9. Frame rate                     : 25.000 FPS
  10. Encoded date                   : 2024-06-03 13:36:15 UTC
  11. Writing application            : mkvmerge v85.0 ('Shame For You') 64-bit
  12. Writing library                : libebml v1.4.5 + libmatroska v1.7.1
  13. Muxer                          : CHDBits WEB Group

  14. Video
  15. ID                             : 1
  16. Format                         : HEVC
  17. Format/Info                    : High Efficiency Video Coding
  18. Format profile                 : Main 10@L5@Main
  19. HDR format                     : SMPTE ST 2094 App 4, Version 1, HDR10+ Profile B compatible
  20. Codec ID                       : V_MPEGH/ISO/HEVC
  21. Duration                       : 55 min 58 s
  22. Bit rate                       : 19.5 Mb/s
  23. Width                          : 3 840 pixels
  24. Height                         : 2 160 pixels
  25. Display aspect ratio           : 16:9
  26. Frame rate mode                : Constant
  27. Frame rate                     : 25.000 FPS
  28. Color space                    : YUV
  29. Chroma subsampling             : 4:2:0
  30. Bit depth                      : 10 bits
  31. Bits/(Pixel*Frame)             : 0.094
  32. Stream size                    : 7.61 GiB (97%)
  33. Language                       : English (US)
  34. Default                        : Yes
  35. Forced                         : No
  36. Color range                    : Limited
  37. Color primaries                : BT.2020
  38. Transfer characteristics       : PQ
  39. Matrix coefficients            : BT.2020 non-constant
  40. Mastering display color primar : Display P3
  41. Mastering display luminance    : min: 0.0001 cd/m2, max: 1000 cd/m2
  42. Maximum Content Light Level    : 999 cd/m2
  43. Maximum Frame-Average Light Le : 215 cd/m2

  44. Audio
  45. ID                             : 2
  46. Format                         : E-AC-3
  47. Format/Info                    : Enhanced AC-3
  48. Commercial name                : Dolby Digital Plus
  49. Codec ID                       : A_EAC3
  50. Duration                       : 55 min 57 s
  51. Bit rate mode                  : Constant
  52. Bit rate                       : 640 kb/s
  53. Channel(s)                     : 6 channels
  54. Channel layout                 : L R C LFE Ls Rs
  55. Sampling rate                  : 48.0 kHz
  56. Frame rate                     : 31.250 FPS (1536 SPF)
  57. Compression mode               : Lossy
  58. Stream size                    : 256 MiB (3%)
  59. Language                       : English (US)
  60. Service kind                   : Complete Main
  61. Default                        : Yes
  62. Forced                         : No
  63. Dialog Normalization           : -31 dB
  64. compr                          : -0.28 dB
  65. dialnorm_Average               : -31 dB
  66. dialnorm_Minimum               : -31 dB
  67. dialnorm_Maximum               : -31 dB

  68. Text #1
  69. ID                             : 3
  70. Format                         : UTF-8
  71. Codec ID                       : S_TEXT/UTF8
  72. Codec ID/Info                  : UTF-8 Plain Text
  73. Duration                       : 54 min 52 s
  74. Bit rate                       : 67 b/s
  75. Frame rate                     : 0.284 FPS
  76. Count of elements              : 936
  77. Stream size                    : 27.2 KiB (0%)
  78. Title                          : Simplified
  79. Language                       : Chinese (Simplified)
  80. Default                        : Yes
  81. Forced                         : No

  82. Text #2
  83. ID                             : 4
  84. Format                         : UTF-8
  85. Codec ID                       : S_TEXT/UTF8
  86. Codec ID/Info                  : UTF-8 Plain Text
  87. Duration                       : 54 min 52 s
  88. Bit rate                       : 67 b/s
  89. Frame rate                     : 0.284 FPS
  90. Count of elements              : 936
  91. Stream size                    : 27.2 KiB (0%)
  92. Title                          : Traditional
  93. Language                       : Chinese (Traditional)
  94. Default                        : No
  95. Forced                         : No

  96. Text #3
  97. ID                             : 5
  98. Format                         : UTF-8
  99. Codec ID                       : S_TEXT/UTF8
  100. Codec ID/Info                  : UTF-8 Plain Text
  101. Duration                       : 54 min 48 s
  102. Bit rate                       : 80 b/s
  103. Frame rate                     : 0.301 FPS
  104. Count of elements              : 990
  105. Stream size                    : 32.3 KiB (0%)
  106. Title                          : SDH
  107. Language                       : English (US)
  108. Default                        : No
  109. Forced                         : No
复制代码


购买主题 本主题需向作者支付 15 金币 才能浏览
hwm54803 发表于 2024-6-4 05:45:34 | 显示全部楼层
感谢楼主分享
回复

使用道具 举报

dqxa 发表于 2024-6-4 07:23:08 | 显示全部楼层
谢谢楼主分享
回复

使用道具 举报

顾扣林 发表于 2024-6-4 08:34:18 | 显示全部楼层
谢谢楼主分享
回复

使用道具 举报

jay1009 发表于 2024-6-4 09:10:04 | 显示全部楼层
好好好                                                        
回复

使用道具 举报

v3344560 发表于 2024-6-4 11:19:48 | 显示全部楼层
谢谢楼主分享
回复

使用道具 举报

jay1009 发表于 2024-6-4 16:34:27 | 显示全部楼层
好好好                           
回复

使用道具 举报

yrccihr 发表于 2024-6-4 17:06:55 | 显示全部楼层
谢谢楼主分享
回复

使用道具 举报

yrccihr 发表于 2024-6-4 17:30:18 | 显示全部楼层
谢谢楼主分享
回复

使用道具 举报

雨辰760501 发表于 2024-6-4 18:10:12 | 显示全部楼层
感谢楼主每天发帖分享,楼主辛苦了!
回复

使用道具 举报

您需要登录后才可以回帖 登录 | 立即注册

本版积分规则

QQ|Archiver|手机版|小黑屋|聚音影社区

GMT+8, 2024-6-17 12:52 , Processed in 0.094380 second(s), 17 queries .

Powered by Discuz! X3.5

© 2001-2024 Discuz! Team.

快速回复 返回顶部 返回列表