找回密码
 立即注册
搜索
热搜: 2023 高码

[115云盘]世界历史[2008][完结剧集][4K高码][国语][中文字幕][324.31GB]

[复制链接]
lcw_008 发表于 7 天前 | 显示全部楼层 |阅读模式


◎译  名 History of the World(第60、68集为1080P)
◎片  名 世界历史
◎年  代 2008
◎产  地 中国大陆
◎类  别 纪录片 / 历史
◎语  言 汉语普通话
◎上映日期 2008-01-01(中国大陆)
◎豆瓣评分 8.3/10 from 2564 users
◎豆瓣链接   https://movie.douban.com/subject/2990228/
◎单集片长 30分钟
◎集  数 100
◎导       演  金城 / Cheng Jin
◎演       员  陆建艺 / Jianyi Lu
      宣晓鸣 / Xiaoming Xuan
◎编       剧  林溪 / Xi Lin
◎简  介 
  《世界历史》是一部跨越国度、跨越时空、跨越民族,以人类社会发展史为题材的大型纪录片。它以丰富的视听手段再现自远古人类起源到万隆会议的浩瀚历史图景,较全面地讲述了人类社会发展过程,揭示了人类历史发展趋势及规律。
  1. General
  2. Complete name                  : 世界历史(4K高码).mp4
  3. Format                         : MPEG-4
  4. Format profile                 : Base Media
  5. Codec ID                       : isom (isom/iso2/avc1/mp41)
  6. File size                      : 3.54 GiB
  7. Duration                       : 30 min 3 s
  8. Overall bit rate               : 16.8 Mb/s
  9. Frame rate                     : 25.000 FPS
  10. Movie name                     : 1 人类历史的开端 —— 石器时代的人们
  11. Album                          : 世界历史
  12. Writing application            : Lavf59.4.101
  13. Cover                          : Yes

  14. Video
  15. ID                             : 1
  16. Format                         : AVC
  17. Format/Info                    : Advanced Video Codec
  18. Format profile                 : High@L5.1
  19. Format settings                : CABAC / 5 Ref Frames
  20. Format settings, CABAC         : Yes
  21. Format settings, Reference fra : 5 frames
  22. Codec ID                       : avc1
  23. Codec ID/Info                  : Advanced Video Coding
  24. Duration                       : 30 min 3 s
  25. Bit rate                       : 16.5 Mb/s
  26. Width                          : 3 840 pixels
  27. Height                         : 2 160 pixels
  28. Display aspect ratio           : 16:9
  29. Frame rate mode                : Variable
  30. Frame rate                     : 25.000 FPS
  31. Minimum frame rate             : 24.961 FPS
  32. Maximum frame rate             : 16 000.000 FPS
  33. Color space                    : YUV
  34. Chroma subsampling             : 4:2:0
  35. Bit depth                      : 8 bits
  36. Scan type                      : Progressive
  37. Bits/(Pixel*Frame)             : 0.080
  38. Stream size                    : 3.47 GiB (98%)
  39. Color range                    : Limited
  40. Color primaries                : BT.709
  41. Transfer characteristics       : BT.709
  42. Matrix coefficients            : BT.709
  43. Codec configuration box        : avcC

  44. Audio
  45. ID                             : 2
  46. Format                         : AAC LC
  47. Format/Info                    : Advanced Audio Codec Low Complexity
  48. Codec ID                       : mp4a-40-2
  49. Duration                       : 30 min 3 s
  50. Bit rate mode                  : Constant
  51. Bit rate                       : 320 kb/s
  52. Channel(s)                     : 2 channels
  53. Channel layout                 : L R
  54. Sampling rate                  : 48.0 kHz
  55. Frame rate                     : 46.875 FPS (1024 SPF)
  56. Compression mode               : Lossy
  57. Stream size                    : 68.8 MiB (2%)
  58. Default                        : Yes
  59. Alternate group                : 1
复制代码


购买主题 已有 1 人购买  本主题需向作者支付 160 金币 才能浏览
hwm54803 发表于 6 天前 | 显示全部楼层
感谢楼主分享
回复

使用道具 举报

顾扣林 发表于 6 天前 | 显示全部楼层
感谢楼主分享
回复

使用道具 举报

雨辰760501 发表于 6 天前 | 显示全部楼层
感谢楼主每天发帖分享,楼主辛苦了!
回复

使用道具 举报

v3344560 发表于 6 天前 | 显示全部楼层
谢谢楼主分享
回复

使用道具 举报

dqxa 发表于 5 天前 | 显示全部楼层
谢谢楼主分享
回复

使用道具 举报

尼古拉斯凯奇 发表于 4 天前 | 显示全部楼层
谢谢群主分享
回复

使用道具 举报

您需要登录后才可以回帖 登录 | 立即注册

本版积分规则

QQ|Archiver|手机版|小黑屋|聚音影社区

GMT+8, 2024-6-17 13:11 , Processed in 0.091206 second(s), 17 queries .

Powered by Discuz! X3.5

© 2001-2024 Discuz! Team.

快速回复 返回顶部 返回列表