找回密码
 立即注册
搜索
热搜: 2023 高码

[115云盘]一战最后的一百天[2018][完结剧集][4K][英语][中文字幕][3.54GB]

[复制链接]
lcw_008 发表于 7 天前 | 显示全部楼层 |阅读模式


◎译  名 一战最后的一百天 / 一战最后100天 / 100 Days to Victory
◎片  名 100 Days To Victory
◎年  代 2018
◎产  地 英國 UK
◎语  言 英語 English
◎上映日期 2018-10-25(英國)
◎IMDb评分  6.8/10 from 94 users
◎IMDb链接  https://www.imdb.com/title/tt9212616/
◎豆瓣链接 https://douban.com/subject/30353105/
◎单集片长 59分钟
◎集  数 2
◎演       员  本·莫特利 / Ben Mortley
      马尔科姆·麦克道威尔 / Malcolm McDowell
      Daniel Dolby
◎简  介 
  这部由两部分组成的纪录片告诉了盟军最美好时刻的史诗故事,以及现代战争的发明。第一集《春季攻势》开始于1918年初,当时盟军正处于最危险的时刻。
  用黑格元帅的名言来说,当一场伟大的德国进攻向西横扫,最终赢得这场最血腥的战争时,他们“背水一战”。英国、澳大利亚、加拿大和法国军队站在德军的道路上,而美国人仍在赶来参加战斗。
  这次袭击引发了一场领导层危机:黑格元帅和福奇元帅要求澳大利亚的莫纳什将军和加拿大的库里将军完善一种新的发动战争的方式,这将带来最终的胜利。
  莫纳什和库里得出结论,取得胜利的唯一途径是有效地实现火炮、坦克、飞机和步兵的“联合兵种”大规模协调。这是现代战争的诞生。
  到8月,他们已经准备好迎接战争的一个重大转折点:亚眠战役。
  从那些在战场上服役的人的亲身经历到将军们的关键决策,这部电视纪录片系列生动地讲述了第一次世界大战非凡的多国武器壮举。
  1. General
  2. Complete name                  : 一战最后的一百天.mp4
  3. Format                         : MPEG-4
  4. Format profile                 : Base Media
  5. Codec ID                       : isom (isom/iso2/mp41)
  6. File size                      : 810 MiB
  7. Duration                       : 30 min 10 s
  8. Overall bit rate mode          : Variable
  9. Overall bit rate               : 3 752 kb/s
  10. Frame rate                     : 25.000 FPS
  11. Recorded date                  : 2022-04-01 17:31:33.2013652+08:00
  12. Writing application            : Lavf58.32.104

  13. Video
  14. ID                             : 1
  15. Format                         : HEVC
  16. Format/Info                    : High Efficiency Video Coding
  17. Format profile                 : Main@L5@Main
  18. Codec ID                       : hev1
  19. Codec ID/Info                  : High Efficiency Video Coding
  20. Duration                       : 30 min 10 s
  21. Bit rate                       : 3 621 kb/s
  22. Width                          : 3 840 pixels
  23. Height                         : 2 160 pixels
  24. Display aspect ratio           : 16:9
  25. Frame rate mode                : Variable
  26. Frame rate                     : 25.000 FPS
  27. Minimum frame rate             : 24.993 FPS
  28. Maximum frame rate             : 25.007 FPS
  29. Color space                    : YUV
  30. Chroma subsampling             : 4:2:0
  31. Bit depth                      : 8 bits
  32. Bits/(Pixel*Frame)             : 0.017
  33. Stream size                    : 782 MiB (96%)
  34. Color range                    : Limited
  35. Color primaries                : BT.709
  36. Transfer characteristics       : BT.709
  37. Matrix coefficients            : BT.709
  38. Codec configuration box        : hvcC

  39. Audio
  40. ID                             : 2
  41. Format                         : AAC LC
  42. Format/Info                    : Advanced Audio Codec Low Complexity
  43. Codec ID                       : mp4a-40-2
  44. Duration                       : 30 min 10 s
  45. Bit rate mode                  : Variable
  46. Bit rate                       : 125 kb/s
  47. Maximum bit rate               : 133 kb/s
  48. Channel(s)                     : 2 channels
  49. Channel layout                 : L R
  50. Sampling rate                  : 48.0 kHz
  51. Frame rate                     : 46.875 FPS (1024 SPF)
  52. Compression mode               : Lossy
  53. Stream size                    : 27.1 MiB (3%)
  54. Default                        : Yes
  55. Alternate group                : 1
复制代码


购买主题 本主题需向作者支付 5 金币 才能浏览
hwm54803 发表于 6 天前 | 显示全部楼层
感谢楼主分享
回复

使用道具 举报

顾扣林 发表于 6 天前 | 显示全部楼层
感谢楼主分享
回复

使用道具 举报

雨辰760501 发表于 6 天前 | 显示全部楼层
感谢楼主每天发帖分享,楼主辛苦了!
回复

使用道具 举报

v3344560 发表于 6 天前 | 显示全部楼层
谢谢楼主分享
回复

使用道具 举报

dqxa 发表于 5 天前 | 显示全部楼层
谢谢楼主分享
回复

使用道具 举报

您需要登录后才可以回帖 登录 | 立即注册

本版积分规则

QQ|Archiver|手机版|小黑屋|聚音影社区

GMT+8, 2024-6-17 11:41 , Processed in 0.091660 second(s), 17 queries .

Powered by Discuz! X3.5

© 2001-2024 Discuz! Team.

快速回复 返回顶部 返回列表