找回密码
 立即注册
搜索
热搜: 2023 高码

[115云盘]古埃及未解之谜[2019][完结剧集][4K][国语][中文字幕][14.66GB]

[复制链接]
lcw_008 发表于 7 天前 | 显示全部楼层 |阅读模式


◎译  名 古埃及未解之谜
◎片  名 古埃及未解之谜
◎年  代 2019
◎产  地 中国大陆
◎类  别 纪录片
◎语  言 汉语普通话
◎上映日期 2019-05-19(中国大陆)
◎豆瓣链接 https://douban.com/subject/34989159/
◎单集片长 44分钟
◎集  数 10
◎简  介 
  古埃及让人感到神秘,有关它的传说让人浮想联翩。考古学家一直借助最新的考古发现和新技术去了解这个古代的文明。本片揭秘了10个最新的埃及考古发现,这些发现让我们有机会更加直观的认识埃及的历史,了解生活在那个时代的人与事。
  1. General
  2. Complete name                  : 古埃及未解之谜.mp4
  3. Format                         : MPEG-4
  4. Format profile                 : Base Media
  5. Codec ID                       : isom (isom/iso2/mp41)
  6. File size                      : 1.22 GiB
  7. Duration                       : 44 min 41 s
  8. Overall bit rate mode          : Variable
  9. Overall bit rate               : 3 913 kb/s
  10. Frame rate                     : 25.000 FPS
  11. Writing application            : Lavf60.10.100

  12. Video
  13. ID                             : 1
  14. Format                         : HEVC
  15. Format/Info                    : High Efficiency Video Coding
  16. Format profile                 : Main@L5@Main
  17. Codec ID                       : hev1
  18. Codec ID/Info                  : High Efficiency Video Coding
  19. Duration                       : 44 min 41 s
  20. Source duration                : 44 min 41 s
  21. Bit rate                       : 3 781 kb/s
  22. Width                          : 3 840 pixels
  23. Height                         : 2 160 pixels
  24. Display aspect ratio           : 16:9
  25. Frame rate mode                : Variable
  26. Frame rate                     : 25.000 FPS
  27. Minimum frame rate             : 24.993 FPS
  28. Maximum frame rate             : 25.007 FPS
  29. Color space                    : YUV
  30. Chroma subsampling             : 4:2:0
  31. Bit depth                      : 8 bits
  32. Bits/(Pixel*Frame)             : 0.018
  33. Stream size                    : 1.18 GiB (97%)
  34. Source stream size             : 1.18 GiB (97%)
  35. Writing library                : Tencent-V265-1.6.9.1-p1k184g16lh64f4ra1.
  36. Color range                    : Limited
  37. Color primaries                : BT.709
  38. Transfer characteristics       : BT.709
  39. Matrix coefficients            : BT.709
  40. Codec configuration box        : hvcC

  41. Audio
  42. ID                             : 2
  43. Format                         : AAC LC
  44. Format/Info                    : Advanced Audio Codec Low Complexity
  45. Codec ID                       : mp4a-40-2
  46. Duration                       : 44 min 41 s
  47. Bit rate mode                  : Variable
  48. Bit rate                       : 125 kb/s
  49. Maximum bit rate               : 128 kb/s
  50. Channel(s)                     : 2 channels
  51. Channel layout                 : L R
  52. Sampling rate                  : 48.0 kHz
  53. Frame rate                     : 46.875 FPS (1024 SPF)
  54. Compression mode               : Lossy
  55. Stream size                    : 40.1 MiB (3%)
  56. Default                        : Yes
  57. Alternate group                : 1
复制代码


购买主题 本主题需向作者支付 10 金币 才能浏览
hwm54803 发表于 6 天前 | 显示全部楼层
感谢楼主分享
回复

使用道具 举报

顾扣林 发表于 6 天前 | 显示全部楼层
感谢楼主分享
回复

使用道具 举报

jay1009 发表于 6 天前 | 显示全部楼层
很好很好好                                 
回复

使用道具 举报

雨辰760501 发表于 6 天前 | 显示全部楼层
感谢楼主每天发帖分享,楼主辛苦了!
回复

使用道具 举报

v3344560 发表于 6 天前 | 显示全部楼层
谢谢楼主分享
回复

使用道具 举报

dqxa 发表于 5 天前 | 显示全部楼层
谢谢楼主分享
回复

使用道具 举报

您需要登录后才可以回帖 登录 | 立即注册

本版积分规则

QQ|Archiver|手机版|小黑屋|聚音影社区

GMT+8, 2024-6-17 13:14 , Processed in 0.104520 second(s), 17 queries .

Powered by Discuz! X3.5

© 2001-2024 Discuz! Team.

快速回复 返回顶部 返回列表