找回密码
 立即注册
搜索
热搜: 2023 高码

[115云盘]中国罪案现场实录第六季[2023][完结剧集][4K][国语][中文字幕][10.40GB]

[复制链接]
lcw_008 发表于 7 天前 | 显示全部楼层 |阅读模式


◎译  名 罪案现场实录 第六季
◎片  名 罪案现场实录 第六季
◎年  代 2023
◎产  地 中国大陆
◎类  别 纪录片
◎语  言 汉语普通话
◎上映日期 2023(中国大陆)
◎豆瓣链接 https://douban.com/subject/36913034/
◎单集片长 32分钟
◎集  数 12
◎简  介 
  《罪案现场实录第六季》,拟直接采访案件的亲历者,及参与破获案件的侦查员;亲历案件的当事人作为案件的讲述人;他们将客观地道出一段段破获案件的解密细节,披露案件破获背后鲜为人知的亲历故事。
  1. General
  2. Complete name                  : 中国罪案现场实录第六季.mp4
  3. Format                         : MPEG-4
  4. Format profile                 : Base Media
  5. Codec ID                       : isom (isom/iso2/mp41)
  6. File size                      : 980 MiB
  7. Duration                       : 32 min 8 s
  8. Overall bit rate mode          : Variable
  9. Overall bit rate               : 4 264 kb/s
  10. Frame rate                     : 25.000 FPS
  11. Writing application            : Lavf60.10.100

  12. Video
  13. ID                             : 1
  14. Format                         : HEVC
  15. Format/Info                    : High Efficiency Video Coding
  16. Format profile                 : Main@L5@Main
  17. Codec ID                       : hev1
  18. Codec ID/Info                  : High Efficiency Video Coding
  19. Duration                       : 32 min 8 s
  20. Source duration                : 32 min 8 s
  21. Bit rate                       : 4 132 kb/s
  22. Width                          : 3 840 pixels
  23. Height                         : 2 160 pixels
  24. Display aspect ratio           : 16:9
  25. Frame rate mode                : Variable
  26. Frame rate                     : 25.000 FPS
  27. Minimum frame rate             : 24.993 FPS
  28. Maximum frame rate             : 25.007 FPS
  29. Color space                    : YUV
  30. Chroma subsampling             : 4:2:0
  31. Bit depth                      : 8 bits
  32. Bits/(Pixel*Frame)             : 0.020
  33. Stream size                    : 950 MiB (97%)
  34. Source stream size             : 950 MiB (97%)
  35. Writing library                : Tencent-V265-1.6.9.1-p1k184g16lh64f4ra1.
  36. Color range                    : Limited
  37. Codec configuration box        : hvcC

  38. Audio
  39. ID                             : 2
  40. Format                         : AAC LC
  41. Format/Info                    : Advanced Audio Codec Low Complexity
  42. Codec ID                       : mp4a-40-2
  43. Duration                       : 32 min 8 s
  44. Bit rate mode                  : Variable
  45. Bit rate                       : 125 kb/s
  46. Maximum bit rate               : 128 kb/s
  47. Channel(s)                     : 2 channels
  48. Channel layout                 : L R
  49. Sampling rate                  : 48.0 kHz
  50. Frame rate                     : 46.875 FPS (1024 SPF)
  51. Compression mode               : Lossy
  52. Stream size                    : 28.8 MiB (3%)
  53. Default                        : Yes
  54. Alternate group                : 1
复制代码


购买主题 已有 1 人购买  本主题需向作者支付 10 金币 才能浏览
hwm54803 发表于 6 天前 | 显示全部楼层
感谢楼主分享
回复

使用道具 举报

顾扣林 发表于 6 天前 | 显示全部楼层
感谢楼主分享
回复

使用道具 举报

雨辰760501 发表于 6 天前 | 显示全部楼层
感谢楼主每天发帖分享,楼主辛苦了!
回复

使用道具 举报

午夜流浪狗 发表于 6 天前 | 显示全部楼层
谢谢楼主分享
回复

使用道具 举报

v3344560 发表于 6 天前 | 显示全部楼层
谢谢楼主分享
回复

使用道具 举报

dqxa 发表于 5 天前 | 显示全部楼层
谢谢楼主分享
回复

使用道具 举报

您需要登录后才可以回帖 登录 | 立即注册

本版积分规则

QQ|Archiver|手机版|小黑屋|聚音影社区

GMT+8, 2024-6-17 11:44 , Processed in 0.095237 second(s), 17 queries .

Powered by Discuz! X3.5

© 2001-2024 Discuz! Team.

快速回复 返回顶部 返回列表