找回密码
 立即注册
搜索
热搜: 2023 高码

[115云盘]猎魔人 第三季[2023][完结剧集][4KHDR+DV双版本][英语][内嵌简繁英字幕][65.82GB]

[复制链接]
lcw_008 发表于 7 天前 | 显示全部楼层 |阅读模式


◎译  名 猎魔人 第三季 / 猎魔士
◎片  名 The Witcher Season 3
◎年  代 2023
◎产  地 美国
◎类  别 剧情 / 动作 / 悬疑 / 奇幻 / 冒险
◎语  言 英语
◎上映日期 2023-06-29(美国)
◎IMDb评分  6.7/10 from 8724 users
◎IMDb链接  https://www.imdb.com/title/tt5180504/
◎豆瓣评分 6.5/10 from 7278 users
◎豆瓣链接   https://movie.douban.com/subject/35609387/
◎单集片长 48~65分钟
◎集  数 8
◎导       演  史蒂芬·瑟吉克 / Stephen Surjik
      维姬·朱森 / Vicky Jewson
◎演       员  亨利·卡维尔 / Henry Cavill | 饰 Geralt of Rivia
      弗蕾娅·艾伦 / Freya Allan | 饰 Ciri
      安亚·查洛特拉 / Anya Chalotra | 饰 Yennefer
      罗比·阿梅尔 / Robbie Amell | 饰 Gallatin
      克里斯特尔·埃尔文 / Christelle Elwin  | 饰 Mistle
      约翰内斯·豪克尔·约翰内森 / Jóhannes Haukur Jóhannesson | 饰 Crach An Craite
      休·斯金纳 / Hugh Skinner | 饰 Prince Radovid
      张梦儿 / Meng'er Zhang | 饰 Milva
      希夫图·卡西姆 / Hiftu Quasem | 饰 Falka
      罗伊斯·皮尔逊 / Royce Pierreson | 饰 Istredd
      凯西·克莱尔 / Cassie Clare | 饰 Philippa Eilhart
      盖亚·蒙达多里 / Gaia Mondadori | 饰 Pavetta
      乔迪·梅 / Jodhi May | 饰 Queen Calanthe
      安吉·K·亚当斯 / Aggy K. Adams | 饰 Iskra
      艾莎·法比恩·罗斯 / Aisha Fabienne Ross | 饰 Lydia Van Bredevoort
      Mecia Simson Mecia Simson | 饰 Francesca
      特蕾西·安·奥伯曼 / Tracy-Ann Oberman | 饰 Queen Hedwig
      艾德·伯奇 / Ed Birch | 饰 King Vizimir of Redania
      威尔逊·拉德茹-普杰尔特 / Wilson Radjou-Pujalte | 饰 Dara
      米哈利娜·奥利尚斯卡 / Michalina Olszańska | 饰 Marti
      萨菲亚·英加尔 / Safiyya Ingar | 饰 Keira Metz
      格拉汉姆·麦克泰维什 / Graham McTavish | 饰 Sigismund Dijkstra
      凯瑟琳·麦克马克 / Catherine McCormack | 饰 Anika
      特里卡·威尔逊-瑞德 / Therica Wilson-Read | 饰 Sabrina
      萨姆·伍尔夫 / Sam Woolf | 饰 Rience
      弗兰西斯·珀利 / Frances Pooley | 饰 Teryn
      西蒙·飞利普斯 / Simon Phillips | 饰 Bandit
      拜尔特·爱德华兹 / Bart Edwards | 饰 Emhyr
      波普伊·阿蒙德 / Poppy Almond | 饰 Bianca
      马德琳·黛 / Madeleine Day | 饰 Elizabet
      凯特·温特 / Kate Winter | 饰 Nilfgaardian Palace Worker
      卢卡斯·奥雷利奥 / Lucas Aurelio | 饰 Antony
      费伊·德汉姆 / Faye Derham | 饰 Aoife
      玛安娜·本灵 / MyAnna Buring | 饰 Tissaia
      利兹·凯尔 / Liz Carr | 饰 Fenn
◎编       剧  安杰伊·萨普科夫斯基 / Andrzej Sapkowski
◎音       乐  约瑟夫·特雷帕尼斯 / Joseph Trapanese
◎动作特技  瓦西尔·约尔丹诺夫 / Vasil Yordanov
      沃尔夫冈·施特格曼 / Wolfgang Stegemann
      阿农·莫尔 / Anon Mall
      托马斯·哈奇克格鲁 / Thomas Hacikoglu
◎简  介 
  今年夏天,天翻地覆。《猎魔人》第3季将于6月29日上线。
      由于大陆上的君主、法师和野兽都在争夺她,杰洛特只能带着来自辛特拉的希里躲藏起来,以此决心保护他新近团聚的家庭,并对抗那些威胁要摧毁它的人。
      同时叶奈法受托负责希里的魔法训练,带领他们来到受保护的艾瑞图萨要塞,她希望在那里发现更多关于这个女孩的未开发的力量。
      但与他们期待正相反的是,他们发现自己落入了一个政治腐败、充满黑魔法和背叛的战场。他们必须反击,并且还要冒着永远失去对方的风险。
  1. General
  2. Unique ID                      : 146147290345156781509131226324326489128 (0x6DF2F1BC1DCFF953AC83D19ED29D1C28)
  3. Complete name                  : 猎魔人 第三季.mkv
  4. Format                         : Matroska
  5. Format version                 : Version 4
  6. File size                      : 8.21 GiB
  7. Duration                       : 1 h 2 min
  8. Overall bit rate               : 18.7 Mb/s
  9. Frame rate                     : 24.000 FPS
  10. Writing application            : mkvmerge v77.0 ('Elemental') 64-bit
  11. Writing library                : libebml v1.4.4 + libmatroska v1.7.1

  12. Video
  13. ID                             : 1
  14. Format                         : HEVC
  15. Format/Info                    : High Efficiency Video Coding
  16. Format profile                 : Main 10@L5@Main
  17. HDR format                     : Dolby Vision, Version 1.0, Profile 8.1, dvhe.08.06, BL+RPU, no metadata compression, HDR10 compatible / SMPTE ST 2086, Version HDR10, HDR10 compatible
  18. Codec ID                       : V_MPEGH/ISO/HEVC
  19. Duration                       : 1 h 0 min
  20. Bit rate                       : 18.6 Mb/s
  21. Width                          : 3 840 pixels
  22. Height                         : 2 160 pixels
  23. Display aspect ratio           : 16:9
  24. Frame rate mode                : Constant
  25. Frame rate                     : 24.000 FPS
  26. Color space                    : YUV
  27. Chroma subsampling             : 4:2:0 (Type 2)
  28. Bit depth                      : 10 bits
  29. Bits/(Pixel*Frame)             : 0.094
  30. Stream size                    : 7.87 GiB (96%)
  31. Language                       : English
  32. Default                        : Yes
  33. Forced                         : No
  34. Color range                    : Limited
  35. Color primaries                : BT.2020
  36. Transfer characteristics       : PQ
  37. Matrix coefficients            : BT.2020 non-constant
  38. Mastering display color primar : Display P3
  39. Mastering display luminance    : min: 0.0001 cd/m2, max: 1000 cd/m2
  40. Maximum Content Light Level    : 1053 cd/m2
  41. Maximum Frame-Average Light Le : 358 cd/m2

  42. Audio
  43. ID                             : 2
  44. Format                         : E-AC-3 JOC
  45. Format/Info                    : Enhanced AC-3 with Joint Object Coding
  46. Commercial name                : Dolby Digital Plus with Dolby Atmos
  47. Codec ID                       : A_EAC3
  48. Duration                       : 1 h 2 min
  49. Bit rate mode                  : Constant
  50. Bit rate                       : 768 kb/s
  51. Channel(s)                     : 6 channels
  52. Channel layout                 : L R C LFE Ls Rs
  53. Sampling rate                  : 48.0 kHz
  54. Frame rate                     : 31.250 FPS (1536 SPF)
  55. Compression mode               : Lossy
  56. Stream size                    : 346 MiB (4%)
  57. Language                       : English
  58. Service kind                   : Complete Main
  59. Default                        : Yes
  60. Forced                         : No
  61. Complexity index               : 16
  62. Number of dynamic objects      : 15
  63. Bed channel count              : 1 channel
  64. Bed channel configuration      : LFE
  65. Dialog Normalization           : -26 dB
  66. compr                          : -0.28 dB
  67. dmixmod                        : 3
  68. ltrtcmixlev                    : -3.0 dB
  69. ltrtsurmixlev                  : -3.0 dB
  70. lorocmixlev                    : -3.0 dB
  71. lorosurmixlev                  : -3.0 dB
  72. dialnorm_Average               : -26 dB
  73. dialnorm_Minimum               : -26 dB
  74. dialnorm_Maximum               : -26 dB

  75. Text #1
  76. ID                             : 3
  77. Format                         : UTF-8
  78. Codec ID                       : S_TEXT/UTF8
  79. Codec ID/Info                  : UTF-8 Plain Text
  80. Duration                       : 56 min 11 s
  81. Bit rate                       : 56 b/s
  82. Frame rate                     : 0.210 FPS
  83. Count of elements              : 707
  84. Stream size                    : 23.1 KiB (0%)
  85. Language                       : English
  86. Default                        : No
  87. Forced                         : No

  88. Text #36
  89. ID                             : 38
  90. Format                         : UTF-8
  91. Codec ID                       : S_TEXT/UTF8
  92. Codec ID/Info                  : UTF-8 Plain Text
  93. Duration                       : 59 min 51 s
  94. Bit rate                       : 52 b/s
  95. Frame rate                     : 0.200 FPS
  96. Count of elements              : 720
  97. Stream size                    : 23.0 KiB (0%)
  98. Title                          : Simplified
  99. Language                       : Chinese (Simplified)
  100. Default                        : No
  101. Forced                         : No

  102. Text #37
  103. ID                             : 39
  104. Format                         : UTF-8
  105. Codec ID                       : S_TEXT/UTF8
  106. Codec ID/Info                  : UTF-8 Plain Text
  107. Duration                       : 59 min 51 s
  108. Bit rate                       : 48 b/s
  109. Frame rate                     : 0.207 FPS
  110. Count of elements              : 742
  111. Stream size                    : 21.4 KiB (0%)
  112. Title                          : Traditional
  113. Language                       : Chinese (Traditional)
  114. Default                        : No
  115. Forced                         : No
复制代码


购买主题 本主题需向作者支付 35 金币 才能浏览
行者47 发表于 6 天前 | 显示全部楼层
谢谢分享
回复

使用道具 举报

hwm54803 发表于 6 天前 | 显示全部楼层
感谢楼主分享
回复

使用道具 举报

顾扣林 发表于 6 天前 | 显示全部楼层
感谢楼主分享
回复

使用道具 举报

jtsswang 发表于 6 天前 | 显示全部楼层
谢谢分享
回复

使用道具 举报

hai1993 发表于 6 天前 | 显示全部楼层

感谢楼主分享
回复

使用道具 举报

雨辰760501 发表于 6 天前 | 显示全部楼层
感谢楼主每天发帖分享,楼主辛苦了!
回复

使用道具 举报

v3344560 发表于 6 天前 | 显示全部楼层
谢谢楼主分享
回复

使用道具 举报

dqxa 发表于 5 天前 | 显示全部楼层
谢谢楼主分享
回复

使用道具 举报

jay1009 发表于 5 天前 | 显示全部楼层
很好很好                                          
回复

使用道具 举报

您需要登录后才可以回帖 登录 | 立即注册

本版积分规则

QQ|Archiver|手机版|小黑屋|聚音影社区

GMT+8, 2024-6-17 12:49 , Processed in 0.102373 second(s), 17 queries .

Powered by Discuz! X3.5

© 2001-2024 Discuz! Team.

快速回复 返回顶部 返回列表