找回密码
 立即注册
搜索
热搜: 2023 高码

[115云盘]我们的生物世界[2024][完结剧集][4KDV][英语][内嵌简繁英字幕][27.89GB]

[复制链接]
lcw_008 发表于 7 天前 | 显示全部楼层 |阅读模式


◎译  名 我们的生物世界 / 我们生活的世界
◎片  名 Our Living World
◎年  代 2024
◎产  地 英国
◎类  别 纪录片
◎语  言 英语
◎上映日期 2024-04-17(英国)
◎IMDb评分  7.8/10 from 513 users
◎IMDb链接  https://www.imdb.com/title/tt23181418/
◎豆瓣评分 8.2/10 from 195 users
◎豆瓣链接   https://movie.douban.com/subject/36148959/
◎单集片长 50分钟
◎集  数 4
◎演       员  凯特·布兰切特 / Cate Blanchett | 旁白
◎简  介 
  探索大自然的奥妙之处,赞叹生物密不可分的关系。
  该纪录片系列为《全球绝美国家公园》艾美奖获奖班底最新力作,为你揭晓一个神秘的联系网络,这不仅聚集我们众人,也维系了地球上最神奇的现象:生命。团队踏遍全球,并请到奥斯卡影后凯特·布兰切特献声旁白,讲解大大小小的非凡生物和生态系统如何协调运作,让我们的生物世界得以恢复及延续。
  1. General
  2. Unique ID                      : 166138921454979839357705289190295829576 (0x7CFD313F8AED934DC5AE411393557C48)
  3. Complete name                  : 我们的生物世界(4KDV).mkv
  4. Format                         : Matroska
  5. Format version                 : Version 4
  6. File size                      : 6.86 GiB
  7. Duration                       : 49 min 39 s
  8. Overall bit rate               : 19.8 Mb/s
  9. Frame rate                     : 25.000 FPS
  10. Encoded date                   : 2024-06-07 17:28:02 UTC
  11. Writing application            : mkvmerge v82.0 ('I'm The President') 64-bit
  12. Writing library                : libebml v1.4.5 + libmatroska v1.7.1

  13. Video
  14. ID                             : 1
  15. Format                         : HEVC
  16. Format/Info                    : High Efficiency Video Coding
  17. Format profile                 : Main 10@L5@Main
  18. HDR format                     : Dolby Vision, Version 1.0, Profile 5, dvhe.05.07, BL+RPU, no metadata compression
  19. Codec ID                       : V_MPEGH/ISO/HEVC
  20. Duration                       : 49 min 39 s
  21. Bit rate                       : 19.0 Mb/s
  22. Width                          : 3 840 pixels
  23. Height                         : 2 160 pixels
  24. Display aspect ratio           : 16:9
  25. Frame rate mode                : Constant
  26. Frame rate                     : 25.000 FPS
  27. Color space                    : YUV
  28. Chroma subsampling             : 4:2:0
  29. Bit depth                      : 10 bits
  30. Bits/(Pixel*Frame)             : 0.092
  31. Stream size                    : 6.59 GiB (96%)
  32. Default                        : Yes
  33. Forced                         : No
  34. Color range                    : Full

  35. Audio
  36. ID                             : 2
  37. Format                         : E-AC-3 JOC
  38. Format/Info                    : Enhanced AC-3 with Joint Object Coding
  39. Commercial name                : Dolby Digital Plus with Dolby Atmos
  40. Codec ID                       : A_EAC3
  41. Duration                       : 49 min 39 s
  42. Bit rate mode                  : Constant
  43. Bit rate                       : 768 kb/s
  44. Channel(s)                     : 6 channels
  45. Channel layout                 : L R C LFE Ls Rs
  46. Sampling rate                  : 48.0 kHz
  47. Frame rate                     : 31.250 FPS (1536 SPF)
  48. Compression mode               : Lossy
  49. Stream size                    : 273 MiB (4%)
  50. Language                       : English
  51. Service kind                   : Complete Main
  52. Default                        : Yes
  53. Forced                         : No
  54. Complexity index               : 16
  55. Number of dynamic objects      : 15
  56. Bed channel count              : 1 channel
  57. Bed channel configuration      : LFE
  58. Dialog Normalization           : -27 dB
  59. compr                          : -0.28 dB
  60. dmixmod                        : 3
  61. ltrtcmixlev                    : -3.0 dB
  62. ltrtsurmixlev                  : -3.0 dB
  63. lorocmixlev                    : -3.0 dB
  64. lorosurmixlev                  : -3.0 dB
  65. dialnorm_Average               : -27 dB
  66. dialnorm_Minimum               : -27 dB
  67. dialnorm_Maximum               : -27 dB

  68. Text #1
  69. ID                             : 3
  70. Format                         : UTF-8
  71. Codec ID                       : S_TEXT/UTF8
  72. Codec ID/Info                  : UTF-8 Plain Text
  73. Duration                       : 46 min 5 s
  74. Bit rate                       : 64 b/s
  75. Frame rate                     : 0.180 FPS
  76. Count of elements              : 499
  77. Stream size                    : 21.8 KiB (0%)
  78. Title                          : SDH
  79. Language                       : English
  80. Default                        : No
  81. Forced                         : No

  82. Text #2
  83. ID                             : 4
  84. Format                         : UTF-8
  85. Codec ID                       : S_TEXT/UTF8
  86. Codec ID/Info                  : UTF-8 Plain Text
  87. Duration                       : 48 min 0 s
  88. Bit rate                       : 43 b/s
  89. Frame rate                     : 0.135 FPS
  90. Count of elements              : 389
  91. Stream size                    : 15.3 KiB (0%)
  92. Title                          : Simplified
  93. Language                       : Chinese
  94. Default                        : No
  95. Forced                         : No

  96. Text #3
  97. ID                             : 5
  98. Format                         : UTF-8
  99. Codec ID                       : S_TEXT/UTF8
  100. Codec ID/Info                  : UTF-8 Plain Text
  101. Duration                       : 48 min 3 s
  102. Bit rate                       : 37 b/s
  103. Frame rate                     : 0.132 FPS
  104. Count of elements              : 382
  105. Stream size                    : 13.1 KiB (0%)
  106. Title                          : Traditional
  107. Language                       : Chinese
  108. Default                        : No
  109. Forced                         : No
复制代码


购买主题 本主题需向作者支付 15 金币 才能浏览
hwm54803 发表于 6 天前 | 显示全部楼层
感谢楼主分享
回复

使用道具 举报

顾扣林 发表于 6 天前 | 显示全部楼层
感谢楼主分享
回复

使用道具 举报

jay1009 发表于 6 天前 | 显示全部楼层
很好很好                                      
回复

使用道具 举报

雨辰760501 发表于 6 天前 | 显示全部楼层
感谢楼主每天发帖分享,楼主辛苦了!
回复

使用道具 举报

v3344560 发表于 6 天前 | 显示全部楼层
谢谢楼主分享
回复

使用道具 举报

dqxa 发表于 5 天前 | 显示全部楼层
谢谢楼主分享
回复

使用道具 举报

您需要登录后才可以回帖 登录 | 立即注册

本版积分规则

QQ|Archiver|手机版|小黑屋|聚音影社区

GMT+8, 2024-6-17 11:13 , Processed in 0.096320 second(s), 17 queries .

Powered by Discuz! X3.5

© 2001-2024 Discuz! Team.

快速回复 返回顶部 返回列表