找回密码
 立即注册
搜索
热搜: 2023 高码

[115云盘]百年巨匠·科技篇[2024][完结剧集][4K][国语][中文字幕][9.58GB]

[复制链接]
lcw_008 发表于 7 天前 | 显示全部楼层 |阅读模式


◎译  名 百年巨匠·科技篇
◎年  代 2024
◎产  地 中国大陆
◎类  别 纪录片/传记/历史
◎语  言 汉语普通话
◎上映日期 2024-05-16(中国大陆)
◎单集片长 30分钟
◎集  数 12
◎演       员  孙悦斌| 旁白
◎简  介 
  《百年巨匠·科技篇》作为《百年巨匠》第二季重点篇章之一,聚焦李四光、竺可桢、侯德榜、茅以升、华罗庚、钱学森、钱三强、邓稼先共8位对中国科技事业发展做出杰出贡献的代表人物,细述他们取得的卓越科技成就,以专业的角度、通俗的表达和丰富的视觉语言,讲述巨匠背后故事,弘扬蕴藏其中的创造智慧和创新精神,展现20世纪中国科技巨匠的风采。
  《百年巨匠·科技篇》于2024年5月16日起在中国教育电视台等30余家电视台及学习强国等多家新媒体平台同步播出。
  1. General
  2. Complete name                  : 百年巨匠·科技篇.mp4
  3. Format                         : MPEG-4
  4. Format profile                 : Base Media
  5. Codec ID                       : isom (isom/iso2/mp41)
  6. File size                      : 501 MiB
  7. Duration                       : 30 min 0 s
  8. Overall bit rate mode          : Variable
  9. Overall bit rate               : 2 335 kb/s
  10. Frame rate                     : 25.000 FPS
  11. Writing application            : Lavf60.10.100

  12. Video
  13. ID                             : 1
  14. Format                         : HEVC
  15. Format/Info                    : High Efficiency Video Coding
  16. Format profile                 : Main@L5@Main
  17. Codec ID                       : hev1
  18. Codec ID/Info                  : High Efficiency Video Coding
  19. Duration                       : 30 min 0 s
  20. Source duration                : 30 min 0 s
  21. Bit rate                       : 2 203 kb/s
  22. Width                          : 3 840 pixels
  23. Height                         : 2 160 pixels
  24. Display aspect ratio           : 16:9
  25. Frame rate mode                : Variable
  26. Frame rate                     : 25.000 FPS
  27. Minimum frame rate             : 24.993 FPS
  28. Maximum frame rate             : 25.007 FPS
  29. Color space                    : YUV
  30. Chroma subsampling             : 4:2:0
  31. Bit depth                      : 8 bits
  32. Bits/(Pixel*Frame)             : 0.011
  33. Stream size                    : 473 MiB (94%)
  34. Source stream size             : 473 MiB (94%)
  35. Writing library                : Tencent-V265-1.6.9.1-p1k184g16lh64f4ra1.
  36. Color range                    : Limited
  37. Color primaries                : BT.709
  38. Transfer characteristics       : BT.709
  39. Matrix coefficients            : BT.709
  40. Codec configuration box        : hvcC

  41. Audio
  42. ID                             : 2
  43. Format                         : AAC LC
  44. Format/Info                    : Advanced Audio Codec Low Complexity
  45. Codec ID                       : mp4a-40-2
  46. Duration                       : 30 min 0 s
  47. Bit rate mode                  : Variable
  48. Bit rate                       : 125 kb/s
  49. Maximum bit rate               : 128 kb/s
  50. Channel(s)                     : 2 channels
  51. Channel layout                 : L R
  52. Sampling rate                  : 48.0 kHz
  53. Frame rate                     : 46.875 FPS (1024 SPF)
  54. Compression mode               : Lossy
  55. Stream size                    : 26.9 MiB (5%)
  56. Default                        : Yes
  57. Alternate group                : 1
复制代码


购买主题 本主题需向作者支付 5 金币 才能浏览
hwm54803 发表于 6 天前 | 显示全部楼层
感谢楼主分享
回复

使用道具 举报

顾扣林 发表于 6 天前 | 显示全部楼层
感谢楼主分享
回复

使用道具 举报

jay1009 发表于 6 天前 | 显示全部楼层
很好很好                             
回复

使用道具 举报

雨辰760501 发表于 6 天前 | 显示全部楼层
感谢楼主每天发帖分享,楼主辛苦了!
回复

使用道具 举报

ryhhh 发表于 6 天前 | 显示全部楼层
感谢楼主分享
回复

使用道具 举报

v3344560 发表于 6 天前 | 显示全部楼层
谢谢楼主分享
回复

使用道具 举报

尼古拉斯凯奇 发表于 6 天前 | 显示全部楼层
谢谢楼主分享
回复

使用道具 举报

dqxa 发表于 5 天前 | 显示全部楼层
谢谢楼主分享
回复

使用道具 举报

您需要登录后才可以回帖 登录 | 立即注册

本版积分规则

QQ|Archiver|手机版|小黑屋|聚音影社区

GMT+8, 2024-6-17 12:05 , Processed in 0.099936 second(s), 17 queries .

Powered by Discuz! X3.5

© 2001-2024 Discuz! Team.

快速回复 返回顶部 返回列表