找回密码
 立即注册
搜索
热搜: 2023 高码

[115云盘]庆余年 第二季[2024][完结剧集][4KDV][国语][中文字幕][166.89GB]

[复制链接]
lcw_008 发表于 6 天前 | 显示全部楼层 |阅读模式


◎译  名 Episode #2.1 / 庆余年2 / Joy of Life 2
◎片  名 庆余年 第二季
◎年  代 2024
◎产  地 中国大陆
◎类  别 剧情 / 古装
◎语  言 汉语普通话
◎上映日期 2024-05-16(中国大陆)
◎IMDb评分  6.8/10 from 20 users
◎IMDb链接  https://www.imdb.com/title/tt32377832/
◎豆瓣评分 7.2/10 from 233813 users
◎豆瓣链接   https://movie.douban.com/subject/34937650/
◎单集片长 45分钟
◎集  数 36
◎导       演  孙皓 / Hao Sun
      温若寒 / Ruohan Wen
◎演       员  张若昀 / Ruoyun Zhang | 饰 范闲
      李沁 / Qin Li | 饰 林婉儿
      陈道明 / Daoming Chen | 饰 庆帝
      吴刚 / Gang Wu | 饰 陈萍萍
      田雨 / Yu Tian | 饰 王启年
      李小冉 / Xiaoran Li | 饰 长公主
      俞飞鸿 / Faye Yu | 饰 皇后
      袁泉 / Quan Yuan | 饰 叶教授
      毛晓彤 / Xiaotong Mao | 饰 北齐大公主
      郭麒麟 / Kevin Guo | 饰 范思辙
      宋轶 / Yi Song | 饰 范若若
      辛芷蕾 / Zhilei Xin | 饰 海棠朵朵
      宁理 / Li Ning | 饰 明青达
      刘端端 / Duanduan Liu | 饰 李承泽二皇子
      张昊唯 / Haowei Zhang | 饰 李承乾太子
      付辛博 / Xinbo Fu | 饰 大皇子
      高曙光 / Shuguang Gao | 饰 范建
      赵柯 / Karina Zhao | 饰 柳如玉
      于洋 / Yang Yu | 饰 林若甫
      李强 / Qiang Li | 饰 言若海
      刘桦 / Hua Liu | 饰 费介
      佟梦实 / Mengshi Tong | 饰 五竹
      郭子凡 / Zifan Guo | 饰 三皇子
      金晨 / Chen Jin | 饰 叶灵儿
      王楚然 / Churan Wang | 饰 桑文
      高露 / Lu Gao | 饰 王夫人
      王晓晨 / Xiaochen Wang | 饰 袁梦
      隋俊波 / Junbo Sui | 饰 宜贵嫔
      归亚蕾 / Ya-lei Kuei | 饰 明老太君
      余皑磊 / Ailei Yu | 饰 邓子越
      毕彦君 / Yanjun Bi | 饰 赖名成
      罗二羊 / Eryang Luo | 饰 袁宏道
      吴幸键 / Xingjian Wu | 饰 言冰云
      宣言 / Yan Xuan | 饰 何宗纬
      王庆祥 / Qingxiang Wang | 饰 叶流云
      徐志胜 / Zhisheng Xu | 饰 徐书吏
      崔志刚 / Zhigang Cui | 饰 侯公公
      傅迦 / Jia Fu | 饰 辛其物
      姚安濂 / Anlian Yao | 饰 庆余堂大掌柜
      秦焰 / Yan Qin | 饰 戴公公
      沈晓海 / Xiaohai Shen | 饰 叶重
      王同辉 / Tonghui Wang | 饰 郭铮
      冯兵 / Bing Feng | 饰 范无救
      常铖 / Cheng Chang | 饰 郭攸之
      王建国 / Jianguo Wang | 饰 老金头
      刘宇桥 / Yuqiao Liu | 饰 影子
      冯恩鹤 / Enhe Feng | 饰 秦业
      赵振廷 / Zhenting Zhao | 饰 谢必安
      董可飞 / Kefei Dong | 饰 林大宝
      李俊贤 / Junxian Li | 饰 高达
      崔鹏 / Peng Cui | 饰 宫典
      贾景晖 / Jinghui Jia | 饰 郭保坤
      王天辰 / Tianchen Wang | 饰 李弘成
      代文雯 / Wenwen Dai | 饰 沈小姐
      王成阳 / Cheng-yang Wang | 饰 洪竹
      张弛 / Chi Zhang | 饰 荆戈
      左凌峰 / Lingfeng Zuo | 饰 史阐立
      刘同 / Tong Liu | 饰 杨万里
      张维伊 / Weiyi Zhang | 饰 侯季昌
      东靖川 / Jingchuan Dong | 饰 冷师兄
      杨彤 / Tong Yang | 饰 秦恒
      孙亦沐 / Louis Sun | 饰 狼桃
      于小鸣 / Xiaoming Yu | 饰 云之澜
      魏炳桦 / Binghua Wei | 饰 神庙使者
      李珞桉 / Luoan Li | 饰 王霸
◎编       剧  王倦 / Juan Wang
      猫腻 / Mao Ni
◎简  介 
  该剧改编自猫腻同名畅销小说,承接上季,范闲(张若昀 饰)率领使团回归途中,二皇子以费介、范思辙以及滕家遗孤的安危来威胁范闲,逼他向自己俯首称臣,二人的矛盾就此激发。范闲所面对的抱月楼迷局,以及接踵而至的春闱危机,都是二皇子精心给范闲布下的陷阱。
  范闲与林婉儿如愿大婚,紧接着,范闲接手内库,却发现内库负债累累。 范闲拒绝了庆余堂大掌柜的相助,决定靠自己的力量解决内库危机,范闲相约城中众商贾相聚苍山,以售卖“库债”为机筹集了两千多万银两,解决了内库空虚问题。
  悬空寺上,庆帝遭遇三连刺杀,范闲出手相救却导致武功全废。危机四伏,压力陡增,范闲别无选择,他必须以这样的身体下江南,挑战庞大的势力与既定的游戏规则,以求彻底夺回内库。
  1. General
  2. Complete name                  : 庆余年 第二季(4KDV).mp4
  3. Format                         : MPEG-4
  4. Format profile                 : Base Media
  5. Codec ID                       : isom (isom)
  6. File size                      : 3.80 GiB
  7. Duration                       : 47 min 52 s
  8. Overall bit rate mode          : Variable
  9. Overall bit rate               : 11.4 Mb/s
  10. Frame rate                     : 25.000 FPS
  11. Encoded date                   : 2024-05-16 12:23:40 UTC
  12. Tagged date                    : 2024-05-16 12:23:40 UTC
  13. Writing application            : OurTV Multimedia Platform

  14. Video
  15. ID                             : 1
  16. Format                         : HEVC
  17. Format/Info                    : High Efficiency Video Coding
  18. Format profile                 : Main 10@L5@Main
  19. HDR format                     : Dolby Vision, Version 1.0, dvhe.05.07, BL+RPU
  20. Codec ID                       : dvhe
  21. Codec ID/Info                  : High Efficiency Video Coding with Dolby Vision
  22. Duration                       : 47 min 52 s
  23. Bit rate                       : 10.9 Mb/s
  24. Width                          : 3 840 pixels
  25. Height                         : 2 160 pixels
  26. Display aspect ratio           : 16:9
  27. Frame rate mode                : Constant
  28. Frame rate                     : 25.000 FPS
  29. Color space                    : YUV
  30. Chroma subsampling             : 4:2:0
  31. Bit depth                      : 10 bits
  32. Bits/(Pixel*Frame)             : 0.052
  33. Stream size                    : 3.63 GiB (95%)
  34. Writing library                : Tencent-V265-1.6.9.1-p1k48g8lh40f4ra1.
  35. Default                        : Yes
  36. Alternate group                : 1
  37. Encoded date                   : 2024-05-16 12:02:35 UTC
  38. Tagged date                    : 2024-05-16 12:23:48 UTC
  39. Color range                    : Full
  40. mdhd_Duration                  : 2872440
  41. Codec configuration box        : hvcC+dvcC

  42. Audio #1
  43. ID                             : 2
  44. Format                         : E-AC-3
  45. Format/Info                    : Enhanced AC-3
  46. Commercial name                : Dolby Digital Plus
  47. Codec ID                       : ec-3
  48. Duration                       : 47 min 52 s
  49. Bit rate mode                  : Constant
  50. Bit rate                       : 256 kb/s
  51. Maximum bit rate               : 270 kb/s
  52. Channel(s)                     : 2 channels
  53. Channel layout                 : L R
  54. Sampling rate                  : 48.0 kHz
  55. Frame rate                     : 31.250 FPS (1536 SPF)
  56. Compression mode               : Lossy
  57. Stream size                    : 87.7 MiB (2%)
  58. Language                       : Chinese
  59. Service kind                   : Complete Main
  60. Default                        : Yes
  61. Alternate group                : 2
  62. Encoded date                   : 2024-05-16 12:02:35 UTC
  63. Tagged date                    : 2024-05-16 12:23:48 UTC

  64. Audio #2
  65. ID                             : 3
  66. Format                         : AAC LC
  67. Format/Info                    : Advanced Audio Codec Low Complexity
  68. Codec ID                       : mp4a-40-2
  69. Duration                       : 47 min 52 s
  70. Bit rate mode                  : Variable
  71. Bit rate                       : 253 kb/s
  72. Maximum bit rate               : 261 kb/s
  73. Channel(s)                     : 2 channels
  74. Channel layout                 : L R
  75. Sampling rate                  : 48.0 kHz
  76. Frame rate                     : 46.875 FPS (1024 SPF)
  77. Compression mode               : Lossy
  78. Stream size                    : 86.8 MiB (2%)
  79. Language                       : Chinese
  80. Default                        : No
  81. Alternate group                : 2
  82. Encoded date                   : 2024-05-16 12:02:35 UTC
  83. Tagged date                    : 2024-05-16 12:23:48 UTC
复制代码


购买主题 本主题需向作者支付 80 金币 才能浏览
xunimeng 发表于 6 天前 | 显示全部楼层
谢大佬分享
回复

使用道具 举报

雨辰760501 发表于 6 天前 | 显示全部楼层
感谢楼主每天发帖分享,楼主辛苦了!
回复

使用道具 举报

行者47 发表于 6 天前 | 显示全部楼层
谢谢分享
回复

使用道具 举报

VIP忠忠113 发表于 6 天前 | 显示全部楼层
楼主辛苦了!
回复

使用道具 举报

v3344560 发表于 6 天前 | 显示全部楼层
谢谢楼主分享
回复

使用道具 举报

jtsswang 发表于 6 天前 | 显示全部楼层
谢谢楼主分享
回复

使用道具 举报

dqxa 发表于 5 天前 | 显示全部楼层
谢谢楼主分享
回复

使用道具 举报

hwm54803 发表于 5 天前 | 显示全部楼层
谢谢楼主分享
回复

使用道具 举报

顾扣林 发表于 5 天前 | 显示全部楼层
谢谢楼主分享
回复

使用道具 举报

您需要登录后才可以回帖 登录 | 立即注册

本版积分规则

QQ|Archiver|手机版|小黑屋|聚音影社区

GMT+8, 2024-6-17 11:46 , Processed in 0.100106 second(s), 17 queries .

Powered by Discuz! X3.5

© 2001-2024 Discuz! Team.

快速回复 返回顶部 返回列表