聚音影社区

 找回密码
 立即注册
搜索

[115云盘]巾帼枭雄[2009][完结剧集][1080P][国/粤语][中文字幕][33.12GB]

  [复制链接]
不错的港剧,值得一看。
二少 发表于 2020-9-20 16:35:50 | 显示全部楼层 |阅读模式


◎译  名 巾帼枭雄 / Rosy Business / 妻妾成群 / 红粉商人
◎片  名 巾幗梟雄
◎年  代 2009
◎产  地 中国香港
◎类  别 剧情
◎语  言 国/粤语
◎上映日期 2009-04-27(中国香港)
◎IMDb评分  8.1/10 from 38 users
◎IMDb链接  https://www.imdb.com/title/tt1503038
◎豆瓣评分 8.6/10 from 25788 users
◎豆瓣链接 https://movie.douban.com/subject/3330144/
◎集  数 25
◎片  长 40分钟
◎导  演 李添胜 Tim-Sing Lee
◎编  剧 张华标 Wa-Biu Cheung / 陈静仪 Ching-yee Chan
◎主  演 黎耀祥 Yiu-Cheung Lai
       邓萃雯 Sheren Tang
       商天娥 Tin-Ngoh Seung
       吴卓羲 Ron Ng
       胡定欣  Ting-yan Wu
       雪妮 Nei Suet
       岳华 Hua Yueh
       谢雪心 Suet-sum Tse
       惠英红 Kara Hui
       李成昌 Shing-Cheung Lee
       许碧姬


◎标  签 TVB | 邓萃雯 | 黎耀祥 | 港剧 | 巾帼枭雄 | 香港 | 电视剧 | 吴卓羲

◎简  介  

  清朝咸丰年间,康宝琦(邓萃雯 饰)是京城铁帽子王爷的厨娘,跟随王爷奔赴江浙。因为水灾,苏浙民不聊生,蒋家却开仓济世受到朝廷重赏,此次王爷一行就是为了以全米宴赏赐蒋家。而康宝琦则是为了一见旧情人蒋乔(岳华 饰),即是开仓济世的蒋家老爷。而此时的蒋乔已为人父,有人认出宝琦的秘密身份并向朝廷揭发,一段尘封的往事再次被打开,在王爷的帮助下,宝琦逃过此劫并嫁入蒋家做了四姨太。此举遭到了蒋家上下的反对,米行中更是暗流汹涌。岂料,蒋乔突然离世,临终前将米行和蒋家托付给宝琦。一面是丧夫之痛,一面是蒋家上下的虎视眈眈,宝琦再次被推到风口浪尖。她能否将蒋家几十年的基业发展下去?
  1. General
  2. Complete name                  :巾帼枭雄01.mkv
  3. Format                         : Matroska
  4. Format version                 : Version 4
  5. File size                      : 1.62 GiB
  6. Duration                       : 43 min 42 s
  7. Overall bit rate               : 5 306 kb/s
  8. Encoded date                   : UTC 2020-01-08 19:04:53
  9. Writing application            : mkvmerge v31.0.0 ('Dolores In A Shoestand') 64-bit
  10. Writing library                : libebml v1.3.6 + libmatroska v1.4.9

  11. Video
  12. ID                             : 1
  13. Format                         : AVC
  14. Format/Info                    : Advanced Video Codec
  15. Format profile                 : High@L4.1
  16. Format settings                : CABAC / 5 Ref Frames
  17. Format settings, CABAC         : Yes
  18. Format settings, Reference fra : 5 frames
  19. Codec ID                       : V_MPEG4/ISO/AVC
  20. Duration                       : 43 min 42 s
  21. Bit rate                       : 5 000 kb/s
  22. Width                          : 1 920 pixels
  23. Height                         : 1 080 pixels
  24. Display aspect ratio           : 16:9
  25. Frame rate mode                : Constant
  26. Frame rate                     : 29.970 (30000/1001) FPS
  27. Color space                    : YUV
  28. Chroma subsampling             : 4:2:0
  29. Bit depth                      : 8 bits
  30. Scan type                      : Progressive
  31. Bits/(Pixel*Frame)             : 0.080
  32. Stream size                    : 1.53 GiB (95%)
  33. Default                        : Yes
  34. Forced                         : No

  35. Audio #1
  36. ID                             : 2
  37. Format                         : AAC LC
  38. Format/Info                    : Advanced Audio Codec Low Complexity
  39. Codec ID                       : A_AAC-2
  40. Duration                       : 43 min 42 s
  41. Bit rate                       : 192 kb/s
  42. Channel(s)                     : 2 channels
  43. Channel layout                 : L R
  44. Sampling rate                  : 44.1 kHz
  45. Frame rate                     : 43.066 FPS (1024 SPF)
  46. Compression mode               : Lossy
  47. Stream size                    : 60.0 MiB (4%)
  48. Title                          : Cantonese
  49. Language                       : Chinese
  50. Default                        : No
  51. Forced                         : No

  52. Audio #2
  53. ID                             : 3
  54. Format                         : AAC LC
  55. Format/Info                    : Advanced Audio Codec Low Complexity
  56. Codec ID                       : A_AAC-2
  57. Duration                       : 43 min 41 s
  58. Bit rate                       : 93.6 kb/s
  59. Channel(s)                     : 2 channels
  60. Channel layout                 : L R
  61. Sampling rate                  : 44.1 kHz
  62. Frame rate                     : 43.066 FPS (1024 SPF)
  63. Compression mode               : Lossy
  64. Stream size                    : 29.3 MiB (2%)
  65. Title                          : Mandarin
  66. Language                       : Chinese
  67. Default                        : Yes
  68. Forced                         : No

  69. Text
  70. ID                             : 4
  71. Format                         : UTF-8
  72. Codec ID                       : S_TEXT/UTF8
  73. Codec ID/Info                  : UTF-8 Plain Text
  74. Duration                       : 40 min 56 s
  75. Bit rate                       : 61 b/s
  76. Count of elements              : 694
  77. Stream size                    : 18.4 KiB (0%)
  78. Language                       : Chinese
  79. Default                        : Yes
  80. Forced                         : No

复制代码
[attach]5738[/attach]

[attach]5736[/attach]

[attach]5737[/attach]

[attach]5739[/attach]

[attach]5740[/attach]

购买主题 已有 2 人购买  本主题需向作者支付 30 金币 才能浏览

聚音影社区本站所有资源均收集自互联网,没有提供影片资源存储,也未参与录制、上传。
若本站收录的资源涉及您的版权或知识产权或其他利益,请附上版权证明邮件告知,在收到邮件后24小时内删除。
本站资源未经同意严禁转载,违规者将被删号封ip处理。

忠忠113 发表于 2020-9-20 22:45:54 | 显示全部楼层
谢谢分享!!!
回复

使用道具 举报

rowa2007 发表于 2020-12-12 23:02:57 | 显示全部楼层
看看再说吧
回复

使用道具 举报

y411sb 发表于 2021-1-6 16:27:32 | 显示全部楼层
感谢楼主分享
回复

使用道具 举报

Mr.Ming 发表于 2021-1-31 16:10:33 | 显示全部楼层
这个剧很经典啊
回复

使用道具 举报

ab7758258 发表于 2021-2-3 04:11:53 | 显示全部楼层
谢谢分享!
回复

使用道具 举报

顾扣林 发表于 2021-2-9 11:22:32 | 显示全部楼层
谢谢分享!
回复

使用道具 举报

难得吃亏 发表于 2021-2-14 06:43:55 | 显示全部楼层
谢谢楼主分享
回复

使用道具 举报

九月鹰飞 发表于 2021-2-26 19:37:27 | 显示全部楼层
谢谢分享谢谢
回复

使用道具 举报

yrccihr 发表于 2021-3-3 10:09:42 | 显示全部楼层
谢谢楼主分享
回复

使用道具 举报

您需要登录后才可以回帖 登录 | 立即注册

本版积分规则

QQ|Archiver|手机版|小黑屋|免责声明|聚音影社区

GMT+8, 2022-9-25 23:31 , Processed in 0.511594 second(s), 27 queries .

Powered by Discuz! X3.4

Copyright © 2001-2020, Tencent Cloud.

快速回复 返回顶部 返回列表