找回密码
 立即注册
搜索
热搜: 2023 高码

[115云盘]学校[2017][完结剧集][1080P][国语][中文字幕][32.71GB]

  [复制链接]
二少 发表于 2020-10-5 19:31:36 | 显示全部楼层 |阅读模式


◎译  名 学校2017 / Hakgyo 2017 / School 2017
◎片  名 学校
◎年  代 2017
◎产  地 韩国
◎类  别 喜剧 / 爱情
◎语  言 韩语
◎上映日期 2017-07-17(韩国)
◎IMDb评分  7.6/10 from 603 users
◎IMDb链接  https://www.imdb.com/title/tt7020608
◎豆瓣评分 6.8/10 from 5992 users
◎豆瓣链接 https://movie.douban.com/subject/26884436/
◎集  数 16
◎片  长 60分钟
◎导  演 朴珍锡 Jin-seok Park / 宋敏烨 Min-yeob Song
◎编  剧 郑灿美 Chanmi Jung / 金胜元 Seung-won Kim
◎主  演 金世正 Se-Jeong Kim
       张东润 Dong-yoon Jang
       金正贤 Jung-hyun Kim
       金路云 Rowoon
       薛仁雅 Seorina
       韩柱莞 Ju-Wan Han
       韩善花 Sun-hwa Han
       徐志焄 Ji-Hoon Seo
       朴世婉 Se-wan Park
       荷承里 Seung-Ri Ha
       金应洙 Eung-soo Kim
       韩宝贝 Bo-bae Han
       闵成旭 Sung-wuk Min
       朴哲民 Cheol-min Park
       李在勇 Lee Jae Yong
       成志娄 Ji-ru Sung
       姜敏赫 Min-Hyuk Kang
       权度云 Do-woon Kwon
       金秀吾 Soo-oh Kim
       金敏荷 Min-ha Kim
       李胜浚 Seung joon Lee
       金姬贞 Kim Hee-jeong
       崔英 Choi Yeong
       张世铉  Se-hyun Jang
       崔成旻 Sung-min Choi
       宋侑庭 Yoo-Jung Song
       洪京 Kyung Hong
       郑贤锡 Hyeon-seok Jeong
       尹多景 Da-kyung Yoon
       赵美玲 Mi-ryeong Cho
       秋贵晶 Kwi-jung Choo
       金秀珍 Soo Jin Kim
       张东柱 Dong-joo Jang
       崔范浩 Beom-ho Choi
       全镇基 Jin-gi Jeon
       刘仁秀 Yoo In-soo
       安承钧 Seung-gyun An


◎标  签 韩剧 | 校园 | 青春 | 韩国 | 2017 | 爱情 | 梦想 | 电视剧

◎简  介  

  讲《学校2017》将是真正的校园故事,像“学校”系列最初篇章一样展现校园生活,述了拥有很多秘密和想法的18岁高中生们的灿烂成长故事。

◎获奖情况  

  第54届百想艺术大赏(2018)
  电视类 最佳新人男演员(提名) 金正贤
  电视类 最佳新人女演员(提名) 金世正
  1. General
  2. Complete name                  : 学校2017.School.2017.2017.WEB-DL.1080p.H265.AAC.mp4
  3. Format                         : MPEG-4
  4. Format profile                 : Base Media
  5. Codec ID                       : isom (isom/iso2/mp41)
  6. File size                      : 2.00 GiB
  7. Duration                       : 1 h 1 min
  8. Overall bit rate mode          : Variable
  9. Overall bit rate               : 4 642 kb/s
  10. Recorded date                  : 2020-10-03T12:06:06.4033586+08:00
  11. Writing application            : Lavf58.32.104

  12. Video
  13. ID                             : 1
  14. Format                         : HEVC
  15. Format/Info                    : High Efficiency Video Coding
  16. Format profile                 : Main@L4@High
  17. Codec ID                       : hev1
  18. Codec ID/Info                  : High Efficiency Video Coding
  19. Duration                       : 1 h 1 min
  20. Bit rate                       : 4 511 kb/s
  21. Width                          : 1 920 pixels
  22. Height                         : 1 080 pixels
  23. Display aspect ratio           : 16:9
  24. Frame rate mode                : Constant
  25. Frame rate                     : 24.000 FPS
  26. Color space                    : YUV
  27. Chroma subsampling             : 4:2:0
  28. Bit depth                      : 8 bits
  29. Bits/(Pixel*Frame)             : 0.091
  30. Stream size                    : 1.94 GiB (97%)
  31. Codec configuration box        : hvcC

  32. Audio
  33. ID                             : 2
  34. Format                         : AAC LC
  35. Format/Info                    : Advanced Audio Codec Low Complexity
  36. Codec ID                       : mp4a-40-2
  37. Duration                       : 1 h 1 min
  38. Bit rate mode                  : Variable
  39. Bit rate                       : 125 kb/s
  40. Maximum bit rate               : 128 kb/s
  41. Channel(s)                     : 2 channels
  42. Channel layout                 : L R
  43. Sampling rate                  : 44.1 kHz
  44. Frame rate                     : 43.066 FPS (1024 SPF)
  45. Compression mode               : Lossy
  46. Stream size                    : 55.0 MiB (3%)
  47. Default                        : Yes
  48. Alternate group                : 1

复制代码
[attach]6548[/attach]

[attach]6549[/attach]

[attach]6550[/attach]

[attach]6551[/attach]

购买主题 已有 3 人购买  本主题需向作者支付 20 金币 才能浏览
ESXF 发表于 2020-10-22 11:40:44 | 显示全部楼层
看过2015没看过2017看看
回复

使用道具 举报

y411sb 发表于 2020-12-18 12:09:56 | 显示全部楼层
感谢楼主分享
回复

使用道具 举报

Mr.Ming 发表于 2021-2-10 09:55:11 | 显示全部楼层
这个没看过,感谢分享
回复

使用道具 举报

ab7758258 发表于 2021-5-31 06:05:27 | 显示全部楼层
提示: 作者被禁止或删除 内容自动屏蔽
回复

使用道具 举报

VIP101812020 发表于 2021-6-7 16:51:25 | 显示全部楼层
感谢分享哦
回复

使用道具 举报

naiheqiao 发表于 2021-6-7 18:01:51 | 显示全部楼层
感谢楼主分享
回复

使用道具 举报

shefans94 发表于 2021-7-4 17:45:15 | 显示全部楼层
感谢分享 这剧不错 适合收藏
回复

使用道具 举报

lcw_008 发表于 2022-10-12 17:16:29 | 显示全部楼层
感谢楼主分享的这部经典校园青春爱情梦想系列韩剧。
回复

使用道具 举报

chen.d 发表于 2022-10-14 21:27:45 | 显示全部楼层
看看看看看看看看
回复

使用道具 举报

您需要登录后才可以回帖 登录 | 立即注册

本版积分规则

QQ|Archiver|手机版|小黑屋|聚音影社区

GMT+8, 2024-6-17 12:00 , Processed in 0.089545 second(s), 22 queries .

Powered by Discuz! X3.5

© 2001-2024 Discuz! Team.

快速回复 返回顶部 返回列表