找回密码
 立即注册
搜索
热搜: 2023 高码

[115云盘]走火[2018][完结剧集][4K][国语][中文字幕][60.88GB]

[复制链接]
二少 发表于 2020-12-4 11:48:37 | 显示全部楼层 |阅读模式


◎译  名 Accidental Firing
◎片  名 走火
◎年  代 2018
◎产  地 中国大陆
◎类  别 动作 / 悬疑
◎语  言 汉语普通话
◎上映日期 2018-06-06(中国大陆)
◎IMDb链接  https://www.imdb.com/title/tt11428198
◎豆瓣评分 6.2/10 from 2525 users
◎豆瓣链接 https://movie.douban.com/subject/27041379/
◎集  数 40
◎片  长 45分钟
◎导  演 李小平 Xiaoping Li / 李小亭 Xiaoting Li
◎编  剧 李晓重 Xiaozhong Li / 娄可心 Kexin Lou
◎主  演 于毅 Yi Yu
       周放 Fang Zhou
       高旻睿 Minrui Gao
       王阳 Yang Wang
       王佳佳 Jiajia Wang
       章婷婷 Tingting Zhang
       杨骏 Jun Yang
       徐卫 Wei Xu
       刘之冰 Zhibing Liu
       王千航 Qianhang Wang
       张皓伦 Haolun Zhang
       白那日苏 Narisu Bai
       单思涵 Sihan Shan
       梅宝莱 Baolai Mei
       周依然 Yiran Zhou


◎标  签 警匪 | 电视剧 | 犯罪 | 悬疑 | 中国大陆 | 动作 | 2018 | 走火

◎简  介  

  十年前,平海站派出所民警赵鹏程在执勤时遭遇持枪嫌疑人,开枪时“哑火”,关键时刻师傅徐雷挡在他面前击毙罪犯也中弹致残,这使赵鹏程在家庭和工作上背负上沉重的精神压力。十年后,平海所值班室发生了“走火”事故。当事民警刘长路顾及他人前途决定隐瞒不报,然目击“走火”的赵鹏程却深陷情与理的抉择中。“走火”事件被人举报,引发平海所的人际纠葛。办案时,赵鹏程和刘长路遭遇袭警,刘长路开枪警告时,一颗子弹误伤路人,造成意外“失火”,由此被告上法庭。案件引发警察用枪法律层面上的思考,律师迟玉和赵鹏程找到关键证据,洗清刘长路罪名,赵鹏程向刘长路坦承是他举报了“走火”,却遭到大家误解。当再次面对枪口,赵鹏程挡在刘长路面前秒杀罪犯,赵鹏程的“开火”打碎了当年“哑火”的精神枷锁,让大家理解了他举报“走火”的正确意义 。
  1. General
  2. Complete name                  : 走火.Accidental.Firing.2018.WEB-DL.4k.H265.AAC.mp4
  3. Format                         : MPEG-4
  4. Format profile                 : Base Media
  5. Codec ID                       : isom (isom/iso2/mp41)
  6. File size                      : 1.40 GiB
  7. Duration                       : 45 min 1 s
  8. Overall bit rate mode          : Variable
  9. Overall bit rate               : 4 454 kb/s
  10. Writing application            : Lavf58.12.100

  11. Video
  12. ID                             : 1
  13. Format                         : HEVC
  14. Format/Info                    : High Efficiency Video Coding
  15. Format profile                 : Main@L5@Main
  16. Codec ID                       : hev1
  17. Codec ID/Info                  : High Efficiency Video Coding
  18. Duration                       : 45 min 1 s
  19. Bit rate                       : 4 323 kb/s
  20. Width                          : 3 840 pixels
  21. Height                         : 2 160 pixels
  22. Display aspect ratio           : 16:9
  23. Frame rate mode                : Constant
  24. Frame rate                     : 25.000 FPS
  25. Color space                    : YUV
  26. Chroma subsampling             : 4:2:0
  27. Bit depth                      : 8 bits
  28. Bits/(Pixel*Frame)             : 0.021
  29. Stream size                    : 1.36 GiB (97%)
  30. Codec configuration box        : hvcC

  31. Audio
  32. ID                             : 2
  33. Format                         : AAC LC
  34. Format/Info                    : Advanced Audio Codec Low Complexity
  35. Codec ID                       : mp4a-40-2
  36. Duration                       : 45 min 1 s
  37. Bit rate mode                  : Variable
  38. Bit rate                       : 125 kb/s
  39. Channel(s)                     : 2 channels
  40. Channel layout                 : L R
  41. Sampling rate                  : 44.1 kHz
  42. Frame rate                     : 43.066 FPS (1024 SPF)
  43. Compression mode               : Lossy
  44. Stream size                    : 40.0 MiB (3%)
  45. Default                        : Yes
  46. Alternate group                : 1

复制代码
[attach]10827[/attach]

[attach]10828[/attach]

[attach]10829[/attach]

[attach]10830[/attach]

[attach]10831[/attach]

购买主题 本主题需向作者支付 30 金币 才能浏览
雨辰760501 发表于 2020-12-4 18:51:27 | 显示全部楼层
谢谢楼主分享
回复

使用道具 举报

难得吃亏 发表于 2020-12-5 06:24:23 | 显示全部楼层
谢谢楼主分享
回复

使用道具 举报

y411sb 发表于 2020-12-5 19:41:00 | 显示全部楼层
感谢楼主分享
回复

使用道具 举报

wjsdubob 发表于 2021-3-8 11:53:58 | 显示全部楼层
分享!!!
回复

使用道具 举报

zgs696 发表于 2021-10-26 20:42:32 | 显示全部楼层
谢谢楼主分享
回复

使用道具 举报

lcw_008 发表于 2022-9-1 10:07:10 | 显示全部楼层
感谢楼主分享的这部国产现代悬疑警匪罪案动作剧。
回复

使用道具 举报

mallo369 发表于 2023-5-26 09:13:12 | 显示全部楼层
感谢楼主分享好资源,收藏了~
回复

使用道具 举报

hwm54803 发表于 2023-7-3 06:48:58 | 显示全部楼层
谢谢楼主分享
回复

使用道具 举报

dqxa 发表于 2023-9-17 05:10:19 | 显示全部楼层
谢谢楼主分享
回复

使用道具 举报

您需要登录后才可以回帖 登录 | 立即注册

本版积分规则

QQ|Archiver|手机版|小黑屋|聚音影社区

GMT+8, 2024-5-21 03:23 , Processed in 0.079161 second(s), 22 queries .

Powered by Discuz! X3.5

© 2001-2024 Discuz! Team.

快速回复 返回顶部 返回列表