找回密码
 立即注册
搜索
热搜: 2023 高码

[115云盘]文房四宝[2018][完结剧集][4K][国语][中文字幕][38.85GB]

[复制链接]
二少 发表于 2020-12-4 11:52:42 | 显示全部楼层 |阅读模式


◎译  名 文房四宝风云录
◎片  名 文房四宝
◎年  代 2018
◎产  地 中国大陆
◎类  别 剧情 / 历史 / 古装
◎语  言 汉语普通话
◎上映日期 2018-10-22(中国大陆)
◎豆瓣评分 0/10 from 0 users
◎豆瓣链接 https://movie.douban.com/subject/30360037/
◎集  数 30
◎片  长 45分钟
◎导  演 张铁林 Tielin Zhang
◎编  剧 韦华 Hua Wei
◎主  演 张铁林 Tielin Zhang
       廖晓琴 Xiaoqin Liao
       李诚儒 Chengru Li
       池华琼 Huaqiong Chi
       李至强 Zhiqiang Li


◎标  签 文化传承 | 好剧 | 宣城 | 中国 | 中华民族 | 骨气 | 张铁林老师演绎的真好 | 良心剧

◎简  介  

  1905年废科举,吴世泽满怀失落焚毁所有书笔纸张。萍水相逢的曹云婵救助了重病卧床的吴世泽。吴世泽在危难之际承担了胡氏墨庄的所有损失,并向遭胡家退婚的的曹云婵求婚,二人喜结连理。武昌起义改变了曹、吴两家的境遇。北洋军阀连年混战,宣城纸业的生产日渐凋敝。随着抗战爆发,曹、吴、胡、汪、诸葛几个在宣城举足轻重的家族的命运又被紧紧联系在一起。吴家长子吴舜仁与汪家长子汪斌走上两条不同道路。舜仁加入地下党,汪斌加入国民党,二人最终势成水火举枪相向。胡亦书堕落为日伪走狗陷害友人。抗战胜利前夕,曹云鹤为掩护吴世泽,与日军大佐同归于尽,彰显民族气节。解放战争中舜仁加入解放军南征北战,功勋卓著。
  1. General
  2. Complete name                  :文房四宝.Four.Treasures.of.the.Study.2018.WEB-DL.4k.H265.AAC.mp4
  3. Format                         : MPEG-4
  4. Format profile                 : Base Media
  5. Codec ID                       : isom (isom/iso2/mp41)
  6. File size                      : 1.35 GiB
  7. Duration                       : 45 min 13 s
  8. Overall bit rate               : 4 290 kb/s
  9. Writing application            : Lavf58.12.100

  10. Video
  11. ID                             : 1
  12. Format                         : HEVC
  13. Format/Info                    : High Efficiency Video Coding
  14. Format profile                 : Main@L5@Main
  15. Codec ID                       : hev1
  16. Codec ID/Info                  : High Efficiency Video Coding
  17. Duration                       : 45 min 13 s
  18. Bit rate                       : 4 159 kb/s
  19. Width                          : 3 840 pixels
  20. Height                         : 2 160 pixels
  21. Display aspect ratio           : 16:9
  22. Frame rate mode                : Constant
  23. Frame rate                     : 25.000 FPS
  24. Color space                    : YUV
  25. Chroma subsampling             : 4:2:0
  26. Bit depth                      : 8 bits
  27. Bits/(Pixel*Frame)             : 0.020
  28. Stream size                    : 1.31 GiB (97%)
  29. Codec configuration box        : hvcC

  30. Audio
  31. ID                             : 2
  32. Format                         : AAC LC
  33. Format/Info                    : Advanced Audio Codec Low Complexity
  34. Codec ID                       : mp4a-40-2
  35. Duration                       : 45 min 13 s
  36. Bit rate mode                  : Constant
  37. Bit rate                       : 124 kb/s
  38. Channel(s)                     : 2 channels
  39. Channel layout                 : L R
  40. Sampling rate                  : 44.1 kHz
  41. Frame rate                     : 43.066 FPS (1024 SPF)
  42. Compression mode               : Lossy
  43. Stream size                    : 40.2 MiB (3%)
  44. Default                        : Yes
  45. Alternate group                : 1

复制代码
[attach]10832[/attach]

[attach]10833[/attach]

[attach]10835[/attach]

[attach]10834[/attach]

购买主题 本主题需向作者支付 20 金币 才能浏览
wjsdubob 发表于 2021-3-8 10:59:07 | 显示全部楼层
分享!!!
回复

使用道具 举报

wjsdubob 发表于 2021-3-8 14:58:46 | 显示全部楼层
谢分享!!!
回复

使用道具 举报

lcw_008 发表于 2022-9-1 10:03:27 | 显示全部楼层
感谢楼主分享的这部国产文化传承民族气节抗战剧。
回复

使用道具 举报

mallo369 发表于 2023-5-26 09:10:38 | 显示全部楼层
感谢楼主分享好资源,收藏了~
回复

使用道具 举报

hwm54803 发表于 2023-7-3 06:44:21 | 显示全部楼层
谢谢楼主分享
回复

使用道具 举报

您需要登录后才可以回帖 登录 | 立即注册

本版积分规则

QQ|Archiver|手机版|小黑屋|聚音影社区

GMT+8, 2024-4-21 06:01 , Processed in 0.079446 second(s), 22 queries .

Powered by Discuz! X3.5

© 2001-2024 Discuz! Team.

快速回复 返回顶部 返回列表