找回密码
 立即注册
搜索
热搜: 2023 高码

[115云盘]封神榜[1990][完结剧集][4K][国语][中文字幕][66.31GB]

  [复制链接]
二少 发表于 2020-12-4 11:56:28 | 显示全部楼层 |阅读模式


◎译  名 
◎片  名 封神榜
◎年  代 1990
◎产  地 中国大陆
◎类  别 剧情 / 奇幻 / 古装
◎语  言 汉语普通话
◎上映日期 1990(中国大陆)
◎IMDb评分  7.0/10 from 22 users
◎IMDb链接  https://www.imdb.com/title/tt5966490
◎豆瓣评分 8.1/10 from 38731 users
◎豆瓣链接 https://movie.douban.com/subject/2154743/
◎集  数 36
◎片  长 46分钟
◎导  演 郭信玲 Xinling Guo
◎编  剧 许仲琳 Zhonglin Xu / 冰夫 Fu Bing / 顾汉昌 Hanchang Gu / 欧阳宇平 Yuping Ouyang / 余又晨 Youchen Yu
◎主  演 傅艺伟 Yiwei Fu
       达奇 Qi Da
       蓝天野 Tianye Lan
       何威 Wei He
       雷长喜 Changxi Lei
       张晓林 Xiaolin Zhang
       汤镇宗 Chun-Chung Tong
       魏启明 Qiming Wei
       卢玲 Ling Lu
       计镇华 Zhenhua Ji
       施正泉 Zhenquan Shi
       乔奇 Qi Qiao
       王正伟 Zhengwei Wang
       李建华 Jianhua Li
       余华东 Huadong Yu
       王若荔 Ruoli Wang
       徐娅 Ya Xu
       夏莎莎 Shasha Xia
       符冲 Chong Fu
       陈秀珠 Rebecca Chan Sau-Chu
       刘昌伟 Changwei  Liu
       段力引 Liyin Duan
       孙继红 Jihong Sun
       孙吉祥 Jixiang Sun
       周景春 Jingchun Zhou
       牛银红 Yinhong Niu
       俞敏贞 Minzhen Yu
       金铭 Ming Jin
       范邦华 Banghua Fan
       张国平 Guoping Zhang
       李蔚曾 Weizeng Li
       王玮 Wei Wang
       张余力 Yuli Zhang
       张震玮 Zhenwei Zhang
       沈光炜 Guangwei Shen
       翁国钧 Guojun Weng
       李新龙 Xinlong Li
       张绶龄 Shouling Zhang
       周铭 Ming Zhou
       Guoping Zhang
       吕贤丽 Xianli Lü
       周国盛 Guosheng Zhou
       谷亦安 Yian Gu
       王志俊 Zhijun Wang
       刘安古 Angu Liu
       过海 Hai Guo
       朱伟忠 Weizhong Zhu
       谭嘉宾 Jiabin Tan
       许勇 Yong Xu
       丁琪 Qi Ding
       何湘钮 Xiangniu He
       盛亚人 Yaren Sheng
       吴慈华 Cihua Wu


◎标  签 电视剧 | 封神榜 | 神话 | 童年回忆 | 国产电视剧 | 大陆 | 童年 | 中国

◎简  介  

  纣王(达奇 饰)荒淫无度,竟在拜祭女娲娘娘庙时轻薄女娲娘娘金身,引起女娲大怒,于是冥冥中安排了妖狐前来颠覆纣王江山。妖狐杀死了被选送入宫的美女妲己(傅艺伟 饰),并上了她的身,从此商朝永无安宁。纣王十分宠幸妲己,对她言听计从。妲己说要吃比干(计镇华 饰)的玲珑七窍心,纣王就命比干挖出来,忠臣比干就此冤死;妲己要造酒池肉林,一具具年轻的生命就此惨死;甚至一旁规劝的姜皇后(卢玲 饰)亦不能幸免遇难。幸好两个皇子逃跑时得仙人相救才幸免。周文王顺应天时,招兵买马,准备讨伐这个无道昏君;姜子牙时运不济,后被文王所聘,为伐纣的最高统帅,一场战争无可避免。
  1. General
  2. Complete name                  : 封神榜.The.First.Myth.1990.WEB-DL.4k.H265.AAC.mp4
  3. Format                         : MPEG-4
  4. Format profile                 : Base Media
  5. Codec ID                       : isom (isom/iso2/mp41)
  6. File size                      : 1.86 GiB
  7. Duration                       : 40 min 14 s
  8. Overall bit rate mode          : Variable
  9. Overall bit rate               : 6 603 kb/s
  10. Writing application            : Lavf58.17.103

  11. Video
  12. ID                             : 1
  13. Format                         : HEVC
  14. Format/Info                    : High Efficiency Video Coding
  15. Format profile                 : Main@L5@Main
  16. Codec ID                       : hev1
  17. Codec ID/Info                  : High Efficiency Video Coding
  18. Duration                       : 40 min 14 s
  19. Bit rate                       : 6 406 kb/s
  20. Width                          : 2 878 pixels
  21. Height                         : 2 160 pixels
  22. Display aspect ratio           : 4:3
  23. Frame rate mode                : Constant
  24. Frame rate                     : 25.000 FPS
  25. Color space                    : YUV
  26. Chroma subsampling             : 4:2:0
  27. Bit depth                      : 8 bits
  28. Bits/(Pixel*Frame)             : 0.041
  29. Stream size                    : 1.80 GiB (97%)
  30. Codec configuration box        : hvcC

  31. Audio
  32. ID                             : 2
  33. Format                         : AAC LC
  34. Format/Info                    : Advanced Audio Codec Low Complexity
  35. Codec ID                       : mp4a-40-2
  36. Duration                       : 40 min 14 s
  37. Bit rate mode                  : Variable
  38. Bit rate                       : 192 kb/s
  39. Channel(s)                     : 2 channels
  40. Channel layout                 : L R
  41. Sampling rate                  : 44.1 kHz
  42. Frame rate                     : 43.066 FPS (1024 SPF)
  43. Compression mode               : Lossy
  44. Stream size                    : 54.6 MiB (3%)
  45. Default                        : Yes
  46. Alternate group                : 1

复制代码
[attach]10840[/attach]

[attach]10836[/attach]

[attach]10837[/attach]

[attach]10838[/attach]

[attach]10839[/attach]

购买主题 已有 8 人购买  本主题需向作者支付 30 金币 才能浏览
龙珠超 发表于 2020-12-4 16:58:42 | 显示全部楼层
童年的回忆
回复

使用道具 举报

liyan042113982 发表于 2020-12-4 18:49:47 | 显示全部楼层
这个比较经典
回复

使用道具 举报

难得吃亏 发表于 2020-12-4 19:43:40 | 显示全部楼层
谢谢楼主分享
回复

使用道具 举报

y411sb 发表于 2020-12-4 20:02:06 | 显示全部楼层
感谢楼主分享
回复

使用道具 举报

y411sb 发表于 2020-12-5 09:12:27 | 显示全部楼层
感谢楼主分享
回复

使用道具 举报

同学少年 发表于 2021-2-2 04:55:02 | 显示全部楼层
这个每集都有完整的片头片尾吗?
回复

使用道具 举报

同学少年 发表于 2021-2-2 04:57:24 | 显示全部楼层
  1. [size=2][url=forum.php?mod=redirect&goto=findpost&pid=17734&ptid=8457][color=#999999]龙珠超 发表于 2020-12-4 16:58[/color][/url][/size]
  2. 童年的回忆
复制代码

这个每集都有完整的片头片尾吗?
回复

使用道具 举报

同学少年 发表于 2021-2-2 15:36:44 | 显示全部楼层
  1. [size=2][url=forum.php?mod=redirect&goto=findpost&pid=17782&ptid=8457][color=#999999]y411sb 发表于 2020-12-4 20:02[/color][/url][/size]
  2. 感谢楼主分享
复制代码

这个每集都有完整的片头片尾吗?
回复

使用道具 举报

同学少年 发表于 2021-2-2 15:38:54 | 显示全部楼层
  1. [size=2][url=forum.php?mod=redirect&goto=findpost&pid=17734&ptid=8457][color=#999999]龙珠超 发表于 2020-12-4 16:58[/color][/url][/size]
  2. 童年的回忆
复制代码

这个每集都有完整的片头片尾吗?
回复

使用道具 举报

您需要登录后才可以回帖 登录 | 立即注册

本版积分规则

QQ|Archiver|手机版|小黑屋|聚音影社区

GMT+8, 2024-6-17 11:44 , Processed in 0.104769 second(s), 22 queries .

Powered by Discuz! X3.5

© 2001-2024 Discuz! Team.

快速回复 返回顶部 返回列表