找回密码
 立即注册
搜索
热搜: 2023 高码

[115云盘]别那么骄傲1.2季[2017][完结剧集][4K][国语][中文字幕][23.29GB]

[复制链接]
二少 发表于 2020-12-4 12:04:55 | 显示全部楼层 |阅读模式


◎译  名 Proud of Love / 别那么骄傲 第一季
◎片  名 别那么骄傲
◎年  代 2016
◎产  地 中国大陆
◎类  别 剧情 / 爱情
◎语  言 汉语普通话
◎上映日期 2016-09-19(中国大陆)
◎豆瓣评分 6.6/10 from 2838 users
◎豆瓣链接 https://movie.douban.com/subject/26738092/
◎集  数 20
◎片  长 25分钟
◎导  演 沈沁源 Qinyuan Shen
◎编  剧 李染宁 Ranning Li / 彭丽楠 Linan Peng / 周运海 Yunhai Zhou / 随侯珠 Houzhu Sui
◎主  演 宋芸桦 Vivian Sung
       佟梦实 Mengshi Tong
       刘倩妤 Qianyu Liu
       侯彦西 Yen Hsi Hou
       蒋林伶 Linli Jiang
       颜敬杰 Jingjie Yan
       王畅唱 Changchang Wang
       官鸿 Darren Chen
       符斌才 Bincai Fu


◎标  签 青春 | 看过的电视剧 | 搞笑 | 网络剧 | 小说改编 | 华语标签 | 国产剧 | 爱情

◎简  介  

  理工科大学和艺术学院分立在马路的两边,它们一边是美女如云才子汇聚的天堂,一边是充满了工科男和书呆子的地狱。就读于艺术系的沈熹(宋芸桦 饰)一直暗恋着自己的青梅竹马林煜堂(官鸿 饰),无奈林煜堂身为工科男,个性迟钝而又木讷,迟迟无法看穿沈熹的小心思。某日,沈熹邂逅了理工科大学的转校生何之洲(佟梦实 饰),后者拥有着英俊的外表和高超的智商,是校园里耀眼的存在。在误打误撞之中,沈熹和何之洲之间竟然产生了灵魂互换的怪现象,而进入到了何之洲体内的沈熹却感到万分庆幸,因为她终于可以借此机会接近朝思暮想的林煜堂了。
  1. General
  2. Complete name                  : 别那么骄傲1.Proud.of.Love.2016.S01.WEB-DL.4k.H265.AAC.mp4
  3. Format                         : MPEG-4
  4. Format profile                 : Base Media
  5. Codec ID                       : isom (isom/iso2/mp41)
  6. File size                      : 658 MiB
  7. Duration                       : 25 min 12 s
  8. Overall bit rate mode          : Variable
  9. Overall bit rate               : 3 650 kb/s
  10. Writing application            : Lavf58.12.100

  11. Video
  12. ID                             : 1
  13. Format                         : HEVC
  14. Format/Info                    : High Efficiency Video Coding
  15. Format profile                 : Main@L5@Main
  16. Codec ID                       : hev1
  17. Codec ID/Info                  : High Efficiency Video Coding
  18. Duration                       : 25 min 12 s
  19. Bit rate                       : 3 454 kb/s
  20. Width                          : 3 840 pixels
  21. Height                         : 2 052 pixels
  22. Display aspect ratio           : 1.85:1
  23. Frame rate mode                : Constant
  24. Frame rate                     : 25.000 FPS
  25. Color space                    : YUV
  26. Chroma subsampling             : 4:2:0
  27. Bit depth                      : 8 bits
  28. Bits/(Pixel*Frame)             : 0.018
  29. Stream size                    : 623 MiB (95%)
  30. Color range                    : Limited
  31. Color primaries                : BT.709
  32. Transfer characteristics       : BT.709
  33. Matrix coefficients            : BT.709
  34. Codec configuration box        : hvcC

  35. Audio
  36. ID                             : 2
  37. Format                         : AAC LC
  38. Format/Info                    : Advanced Audio Codec Low Complexity
  39. Codec ID                       : mp4a-40-2
  40. Duration                       : 25 min 12 s
  41. Bit rate mode                  : Variable
  42. Bit rate                       : 192 kb/s
  43. Maximum bit rate               : 247 kb/s
  44. Channel(s)                     : 2 channels
  45. Channel layout                 : L R
  46. Sampling rate                  : 44.1 kHz
  47. Frame rate                     : 43.066 FPS (1024 SPF)
  48. Compression mode               : Lossy
  49. Stream size                    : 34.2 MiB (5%)
  50. Default                        : Yes
  51. Alternate group                : 1

复制代码
[attach]10846[/attach]

[attach]10847[/attach]

[attach]10848[/attach]

[attach]10849[/attach]

[attach]10850[/attach]

购买主题 本主题需向作者支付 10 金币 才能浏览
wjsdubob 发表于 2021-3-8 10:51:07 | 显示全部楼层
分享!!!
回复

使用道具 举报

ab7758258 发表于 2021-5-14 13:33:06 | 显示全部楼层
提示: 作者被禁止或删除 内容自动屏蔽
回复

使用道具 举报

lcw_008 发表于 2022-9-1 09:51:16 | 显示全部楼层
感谢楼主分享的这部国产小说改编青春搞笑爱情系列剧。
回复

使用道具 举报

mallo369 发表于 2023-5-26 09:03:38 | 显示全部楼层
感谢楼主分享好资源,收藏了~
回复

使用道具 举报

hwm54803 发表于 2023-7-3 06:35:05 | 显示全部楼层
谢谢楼主分享
回复

使用道具 举报

您需要登录后才可以回帖 登录 | 立即注册

本版积分规则

QQ|Archiver|手机版|小黑屋|聚音影社区

GMT+8, 2024-4-21 07:37 , Processed in 0.078211 second(s), 22 queries .

Powered by Discuz! X3.5

© 2001-2024 Discuz! Team.

快速回复 返回顶部 返回列表