找回密码
 立即注册
搜索
热搜: 2023 高码

[115云盘]漫长的季节[2023][完结剧集][4K+DV][国语][中文字幕][45.23GB]

  [复制链接]
lcw_008 发表于 2023-5-3 10:56:40 | 显示全部楼层 |阅读模式
◎译  名 The Long Season
◎片  名 漫长的季节
◎年  代 2023
◎产  地 中国大陆
◎类  别 剧情 / 家庭 / 犯罪
◎语  言 汉语普通话
◎上映日期 2023-04-22(中国大陆)
◎IMDb评分  9.2/10 from 60 users
◎IMDb链接  https://www.imdb.com/title/tt27628576/
◎豆瓣评分 9.5/10 from 176902 users
◎豆瓣链接   https://movie.douban.com/subject/35588177/
◎单集片长 60分钟
◎集  数 12
◎导       演  辛爽 / Shuang Xin
◎演       员  范伟 / Wei Fan | 饰 王响
      秦昊 / Hao Qin | 饰 龚彪
      陈明昊 / Minghao Chen | 饰 马德胜
      李庚希 / Gengxi Li | 饰 沈墨
      刘奕铁 / Yitie Liu | 饰 王阳
      蒋奇明 / Qiming Jiang | 饰 傅卫军
      刘琳 / Lin Liu | 饰 李巧云
      史彭元 / Pengyuan Shi | 饰 王北
      侯岩松 / Yansong Hou | 饰 沈栋梁
      林晓杰 / Diana Lin | 饰 罗美素
      王佳佳 / Jiajia Wang | 饰 黄丽茹
      杨一威 / Yiwei Yang | 饰 邢建春
      唐曾 / Zeng Tang | 饰 李群
      王艺荻 / Yidi Wang | 饰 殷红
      张帆 / Fan Zhang | 饰 宋玉坤
      林鹏 / Peng Lin | 饰 吴老师
      李思博 / Sibo Li | 饰 崔国栋
      陈玺旭 / Xixu Chen | 饰 老葛
      曾淇 / Qi Zeng | 饰 小露
      刘洋 / Yang Liu | 饰 大张
      袁利国 / Liguo Yuan | 饰 刘全力
      王红梅 / Hongmei Wang | 饰 赵静
      张静初 / Jingchu Zhang | 饰 沈墨中年
      任素汐 / Suxi Ren | 饰 徐姐
      王啸宇 / Xiaoyu Wang | 饰 隋东
◎编       剧  于小千 / Xiaoqian Yu
      潘依然 / Yiran Pan
      陈骥 / Ji Chen
      班宇 / Yu Ban
◎制  片  人  张娜 / Na Zhang
      卢静 / JingLu
      薄冰 / Bing Bo
      宋存松 / Cunsong Song
◎音       乐  丁可 / Ke Ding
◎摄       影  晁明 / Ming Chao
◎剪       辑  路迪 / Di Lu
◎选       角  李俊霆 / Junting  Li
◎美       术  于浩然 / Haoran Yu
◎服       装  田壮壮 / Zhuangzhuang Tian
◎音       效  张楠 / Nan Zhang
◎视觉特效  付彦彬 / Yanbin Fu
◎简  介 
  小城桦林,此时,出租司机王响(范伟 饰)做梦也没想到,他还有机会遇到一个他此生最想遇到,又最怕遇到的人。是仇人还是故人?遇到了,就得有交代,给自己,也给儿子。
  小城桦林,彼时,火车司机王响意气风发,开得了二十挂的钢铁巨兽却管不好鸡毛蒜皮的三口小家,工厂摇摇欲坠,危机处处紧逼。
  一包身份未明的碎尸像一块石头砸在桦林的水面上,也砸在王响的头脑里,这片涟漪一荡就是20年,荡到秋叶泛黄,从未停歇。
  迷失的父亲,死亡的恋人、重逢的老友,因一个未解的谜题被困在三个不同的时代里,只为追寻一个跨越了过去、现在、未来的真相,当谜底揭开时,时空融为一体,在漫长的季节里只剩命运的挽歌。
  1. General
  2. Complete name                  : 漫长的季节.mp4
  3. Format                         : MPEG-4
  4. Format profile                 : Base Media
  5. Codec ID                       : isom (isom/iso2/mp41)
  6. File size                      : 851 MiB
  7. Duration                       : 1 h 12 min
  8. Overall bit rate               : 1 646 kb/s
  9. Frame rate                     : 25.000 FPS
  10. Writing application            : Lavf59.0.100

  11. Video
  12. ID                             : 1
  13. Format                         : HEVC
  14. Format/Info                    : High Efficiency Video Coding
  15. Format profile                 : Main@L5@Main
  16. Codec ID                       : hev1
  17. Codec ID/Info                  : High Efficiency Video Coding
  18. Duration                       : 1 h 12 min
  19. Source duration                : 1 h 12 min
  20. Bit rate                       : 1 256 kb/s
  21. Width                          : 3 840 pixels
  22. Height                         : 1 608 pixels
  23. Display aspect ratio           : 2.40:1
  24. Frame rate mode                : Variable
  25. Frame rate                     : 25.000 FPS
  26. Minimum frame rate             : 24.993 FPS
  27. Maximum frame rate             : 25.007 FPS
  28. Color space                    : YUV
  29. Chroma subsampling             : 4:2:0
  30. Bit depth                      : 8 bits
  31. Bits/(Pixel*Frame)             : 0.008
  32. Stream size                    : 650 MiB (76%)
  33. Source stream size             : 650 MiB (76%)
  34. mdhd_Duration                  : 4339762
  35. Codec configuration box        : hvcC

  36. Audio #1
  37. ID                             : 2
  38. Format                         : E-AC-3
  39. Format/Info                    : Enhanced AC-3
  40. Commercial name                : Dolby Digital Plus
  41. Codec ID                       : ec-3
  42. Duration                       : 1 h 12 min
  43. Bit rate mode                  : Constant
  44. Bit rate                       : 256 kb/s
  45. Channel(s)                     : 2 channels
  46. Channel layout                 : L R
  47. Sampling rate                  : 48.0 kHz
  48. Frame rate                     : 31.250 FPS (1536 SPF)
  49. Compression mode               : Lossy
  50. Stream size                    : 132 MiB (16%)
  51. Title                          : 国语
  52. Language                       : Chinese
  53. Service kind                   : Complete Main
  54. Default                        : Yes
  55. Alternate group                : 1

  56. Audio #2
  57. ID                             : 3
  58. Format                         : AAC LC
  59. Format/Info                    : Advanced Audio Codec Low Complexity
  60. Codec ID                       : mp4a-40-2
  61. Duration                       : 1 h 12 min
  62. Bit rate mode                  : Constant
  63. Bit rate                       : 125 kb/s
  64. Channel(s)                     : 2 channels
  65. Channel layout                 : L R
  66. Sampling rate                  : 48.0 kHz
  67. Frame rate                     : 46.875 FPS (1024 SPF)
  68. Compression mode               : Lossy
  69. Stream size                    : 64.9 MiB (8%)
  70. Title                          : 国语
  71. Language                       : Chinese
  72. Default                        : No
  73. Alternate group                : 1
复制代码


购买主题 已有 13 人购买  本主题需向作者支付 25 金币 才能浏览
kxy7266259 发表于 2023-10-16 23:05:22 | 显示全部楼层
谢谢楼主分享
回复

使用道具 举报

顾扣林 发表于 2023-9-23 14:37:11 | 显示全部楼层

谢谢楼主分享
回复

使用道具 举报

romantic青禾 发表于 2023-7-21 21:57:41 | 显示全部楼层
感谢楼主分享
回复

使用道具 举报

xunimeng 发表于 2023-7-15 19:54:13 | 显示全部楼层
今年最佳剧集
回复

使用道具 举报

lockxx 发表于 2023-6-2 23:28:02 | 显示全部楼层

谢谢楼主分享
回复

使用道具 举报

mada 发表于 2023-5-28 21:33:31 | 显示全部楼层
谢谢楼主分享
回复

使用道具 举报

大漠芭比 发表于 2023-5-16 08:33:49 | 显示全部楼层
感谢分享高分网剧  
回复

使用道具 举报

yueyuewonvshen 发表于 2023-5-7 10:11:05 | 显示全部楼层
感谢楼主分享
回复

使用道具 举报

dqxa 发表于 2023-5-6 02:33:48 | 显示全部楼层
谢谢楼主分享
回复

使用道具 举报

您需要登录后才可以回帖 登录 | 立即注册

本版积分规则

QQ|Archiver|手机版|小黑屋|聚音影社区

GMT+8, 2024-6-17 11:55 , Processed in 0.109039 second(s), 18 queries .

Powered by Discuz! X3.5

© 2001-2024 Discuz! Team.

快速回复 返回顶部 返回列表