找回密码
 立即注册
搜索
热搜: 2023 高码

[115云盘]锁爱三生[2023][完结剧集][4K60帧][国语][中文字幕][7.38GB]

  [复制链接]
lcw_008 发表于 2023-6-26 19:25:46 | 显示全部楼层 |阅读模式
◎译  名 锁爱三生
◎片  名 锁爱三生
◎年  代 2023
◎产  地 中国大陆
◎类  别 爱情 / 古装
◎语  言 汉语普通话
◎上映日期 2023-05-26(中国大陆)
◎豆瓣评分 6.0/10 from 3843 users
◎豆瓣链接   https://movie.douban.com/subject/36315567/
◎单集片长 13分钟
◎集  数 24
◎导       演  何佳男 / Jianan He
◎演       员  李九霖 / Jiulin Li | 饰 萧鸿烨
      关畅 / Chang Guan | 饰 顾梦
      袁梓铭 / Ziming Yuan | 饰 周子辰
      吴洛浛 / Luohan Wu | 饰 周娇娇
◎简  介 
  该剧以民国军阀混战时期为背景,主要讲述了在战乱之下背负家仇的“冷酷军阀”萧鸿烨(李九霖饰演)千方百计接近“千金小姐”顾梦(关畅饰演),两人在家仇恩怨的交织下逐渐互生情愫,从而引发了一场爱恨纠葛的虐恋故事。
  1. General
  2. Complete name                  : 锁爱三生.mp4
  3. Format                         : MPEG-4
  4. Format profile                 : Base Media
  5. Codec ID                       : isom (isom/iso2/mp41)
  6. File size                      : 466 MiB
  7. Duration                       : 11 min 28 s
  8. Overall bit rate               : 5 679 kb/s
  9. Frame rate                     : 60.000 FPS
  10. Writing application            : Lavf58.35.100

  11. Video
  12. ID                             : 1
  13. Format                         : HEVC
  14. Format/Info                    : High Efficiency Video Coding
  15. Format profile                 : Main@L5.1@Main
  16. Codec ID                       : hev1
  17. Codec ID/Info                  : High Efficiency Video Coding
  18. Duration                       : 11 min 28 s
  19. Bit rate                       : 5 474 kb/s
  20. Width                          : 3 840 pixels
  21. Height                         : 1 616 pixels
  22. Display aspect ratio           : 2.40:1
  23. Frame rate mode                : Constant
  24. Frame rate                     : 60.000 FPS
  25. Color space                    : YUV
  26. Chroma subsampling             : 4:2:0
  27. Bit depth                      : 8 bits
  28. Bits/(Pixel*Frame)             : 0.015
  29. Stream size                    : 449 MiB (96%)
  30. Color range                    : Limited
  31. Color primaries                : BT.709
  32. Transfer characteristics       : BT.709
  33. Matrix coefficients            : BT.709
  34. Codec configuration box        : hvcC

  35. Audio
  36. ID                             : 2
  37. Format                         : AAC LC
  38. Format/Info                    : Advanced Audio Codec Low Complexity
  39. Codec ID                       : mp4a-40-2
  40. Duration                       : 11 min 28 s
  41. Bit rate mode                  : Constant
  42. Bit rate                       : 192 kb/s
  43. Channel(s)                     : 2 channels
  44. Channel layout                 : L R
  45. Sampling rate                  : 44.1 kHz
  46. Frame rate                     : 43.066 FPS (1024 SPF)
  47. Compression mode               : Lossy
  48. Stream size                    : 15.8 MiB (3%)
  49. Default                        : Yes
  50. Alternate group                : 1
复制代码


购买主题 已有 3 人购买  本主题需向作者支付 5 金币 才能浏览
7015522 发表于 2023-10-15 10:02:19 | 显示全部楼层

谢谢楼主分享
回复

使用道具 举报

wjsdubob 发表于 2023-9-20 10:55:48 | 显示全部楼层
怀旧香港电影文化。。。。。。。。
回复

使用道具 举报

wjsdubob 发表于 2023-9-18 02:32:49 | 显示全部楼层
怀旧香港电影文化。。。。。。。。
回复

使用道具 举报

wjsdubob 发表于 2023-9-6 07:45:36 | 显示全部楼层

怀旧香港电影文化。。。。。。。。。
回复

使用道具 举报

于海跃 发表于 2023-9-3 12:25:44 | 显示全部楼层
66666666666666666
回复

使用道具 举报

顾扣林 发表于 2023-9-3 12:20:11 | 显示全部楼层
谢谢楼主分享
回复

使用道具 举报

nzaniubi 发表于 2023-9-1 11:28:11 | 显示全部楼层
感谢楼主分享
回复

使用道具 举报

顾扣林 发表于 2023-8-14 16:11:13 | 显示全部楼层
谢谢楼主分享
回复

使用道具 举报

xunimeng 发表于 2023-7-16 15:37:52 | 显示全部楼层
看看就好了
回复

使用道具 举报

您需要登录后才可以回帖 登录 | 立即注册

本版积分规则

QQ|Archiver|手机版|小黑屋|聚音影社区

GMT+8, 2024-6-19 12:33 , Processed in 0.100181 second(s), 18 queries .

Powered by Discuz! X3.5

© 2001-2024 Discuz! Team.

快速回复 返回顶部 返回列表