找回密码
 立即注册
搜索
热搜: 2023 高码

[115云盘]顾问[2023][完结剧集][4KHDR][英语][内嵌简繁英字幕][27.63GB]

[复制链接]
lcw_008 发表于 2023-12-6 12:52:14 | 显示全部楼层 |阅读模式

◎译  名 顾问 / 顾问的夜晚
◎片  名 The Consultant
◎年  代 2023
◎产  地 美国
◎类  别 喜剧
◎语  言 英语
◎上映日期 2023-02-24(美国)
◎IMDb评分  6.5/10 from 15350 users
◎IMDb链接  https://www.imdb.com/title/tt16152716/
◎豆瓣评分 5.7/10 from 643 users
◎豆瓣链接   https://movie.douban.com/subject/35679719/
◎单集片长 29分钟
◎集  数 8
◎导       演  马特·沙克曼 / Matt Shakman
      卡瑞恩·库萨马 / Karyn Kusama
      阿丽克西斯·奥斯特兰德 / Alexis Ostrander
      夏洛特·布伦斯特伦 / Charlotte Brandstrom
      丹尼尔·艾提奥斯 / Daniel Attias
◎演       员  克里斯托弗·瓦尔兹 / Christoph Waltz | 饰 Regus Patoff
      纳特·沃尔夫 / Nat Wolff | 饰 Craig
      布莱特妮·奥格拉迪 / Brittany O'Grady | 饰 Elaine
      艾米·卡里诺 / Aimee Carrero | 饰 Patti
      悉尼·梅·迪亚兹 / Sydney Mae Diaz | 饰 Raul
      斯洛安妮·阿芙瑞 / Sloane Avery | 饰 Rosie
      迈克尔·C.瓦卡罗 / Michael C. Vaccaro | 饰 Iain
      黛安妮·尹 / Dianne Doan | 饰 Ghislane
      塔蒂亚娜·扎普蒂诺 / Tatiana Zappardino | 饰 Janelle
      杰克·曼利 / Jake Manley | 饰 Patrice
      埃德·阿玛特鲁多 / Ed Amatrudo | 饰 Father Stollen
      斯蒂凡尼·埃斯特斯 / Stefanie Estes | 饰 Trisha
      胡安·卡洛斯·坎图 / Juan Carlos Cantu | 饰 Frank Florez
      安娜·麦克唐纳 / Anna MacDonald  | 饰 Highrise Hostess
      克里斯汀·奥梅拉 / Kristen O'Meara | 饰 Marketing Exec #4
      鲁拉·加迪尼尔 / Rula Gardenier | 饰 Doctor #3
◎编       剧  托尼·巴斯加勒普 / Tony Basgallop
      本特利·利特 / Bentley Little  
◎制  片  人  托尼·巴斯加勒普 / Tony Basgallop
      马特·沙克曼 / Matt Shakman
◎音       乐  杰夫·鲁索 / Jeff Russo
◎摄       影  杰斯·霍尔 / Jess Hall
◎简  介 
  基于应用程序开发的游戏公司CompWare聘请新顾问雷格斯·帕托夫(克里斯托弗·瓦尔兹 饰)来帮助他们改善业务,员工们将经历新的要求和挑战,这让他们对一切都产生了疑问,包括他们的生活。
  1. General
  2. Unique ID                      : 150884734779481187311001130202585026323 (0x718357C765105E1BC298E310BDF6CF13)
  3. Complete name                  : 顾问.mkv
  4. Format                         : Matroska
  5. Format version                 : Version 4
  6. File size                      : 3.49 GiB
  7. Duration                       : 33 min 27 s
  8. Overall bit rate               : 14.9 Mb/s
  9. Frame rate                     : 23.976 FPS
  10. Writing application            : mkvmerge v74.0.0 ('You Oughta Know') 64-bit
  11. Writing library                : libebml v1.4.4 + libmatroska v1.7.1

  12. Video
  13. ID                             : 1
  14. Format                         : HEVC
  15. Format/Info                    : High Efficiency Video Coding
  16. Format profile                 : Main 10@L5@Main
  17. HDR format                     : Dolby Vision, Version 1.0, dvhe.08.06, BL+RPU, HDR10 compatible / SMPTE ST 2094 App 4, Version 1, HDR10+ Profile B compatible
  18. Codec ID                       : V_MPEGH/ISO/HEVC
  19. Duration                       : 33 min 27 s
  20. Bit rate                       : 14.3 Mb/s
  21. Width                          : 3 840 pixels
  22. Height                         : 1 600 pixels
  23. Display aspect ratio           : 2.40:1
  24. Frame rate mode                : Constant
  25. Frame rate                     : 23.976 (24000/1001) FPS
  26. Color space                    : YUV
  27. Chroma subsampling             : 4:2:0
  28. Bit depth                      : 10 bits
  29. Bits/(Pixel*Frame)             : 0.097
  30. Stream size                    : 3.34 GiB (96%)
  31. Language                       : English (US)
  32. Default                        : Yes
  33. Forced                         : No
  34. Color range                    : Limited
  35. Color primaries                : BT.2020
  36. Transfer characteristics       : PQ
  37. Matrix coefficients            : BT.2020 non-constant
  38. Mastering display color primar : Display P3
  39. Mastering display luminance    : min: 0.0001 cd/m2, max: 1000 cd/m2
  40. Maximum Content Light Level    : 601 cd/m2
  41. Maximum Frame-Average Light Le : 168 cd/m2

  42. Audio
  43. ID                             : 2
  44. Format                         : E-AC-3
  45. Format/Info                    : Enhanced AC-3
  46. Commercial name                : Dolby Digital Plus
  47. Codec ID                       : A_EAC3
  48. Duration                       : 33 min 27 s
  49. Bit rate mode                  : Constant
  50. Bit rate                       : 640 kb/s
  51. Channel(s)                     : 6 channels
  52. Channel layout                 : L R C LFE Ls Rs
  53. Sampling rate                  : 48.0 kHz
  54. Frame rate                     : 31.250 FPS (1536 SPF)
  55. Compression mode               : Lossy
  56. Stream size                    : 153 MiB (4%)
  57. Language                       : English (US)
  58. Service kind                   : Complete Main
  59. Default                        : Yes
  60. Forced                         : No

  61. Text #1
  62. ID                             : 3
  63. Format                         : UTF-8
  64. Codec ID                       : S_TEXT/UTF8
  65. Codec ID/Info                  : UTF-8 Plain Text
  66. Duration                       : 30 min 43 s
  67. Bit rate                       : 56 b/s
  68. Frame rate                     : 0.204 FPS
  69. Count of elements              : 377
  70. Stream size                    : 12.7 KiB (0%)
  71. Language                       : English (US)
  72. Default                        : No
  73. Forced                         : No

  74. Text #35
  75. ID                             : 37
  76. Format                         : UTF-8
  77. Codec ID                       : S_TEXT/UTF8
  78. Codec ID/Info                  : UTF-8 Plain Text
  79. Duration                       : 32 min 7 s
  80. Bit rate                       : 49 b/s
  81. Frame rate                     : 0.194 FPS
  82. Count of elements              : 373
  83. Stream size                    : 11.7 KiB (0%)
  84. Title                          : Simplified
  85. Language                       : Chinese (Simplified)
  86. Default                        : No
  87. Forced                         : No

  88. Text #36
  89. ID                             : 38
  90. Format                         : UTF-8
  91. Codec ID                       : S_TEXT/UTF8
  92. Codec ID/Info                  : UTF-8 Plain Text
  93. Duration                       : 32 min 7 s
  94. Bit rate                       : 46 b/s
  95. Frame rate                     : 0.194 FPS
  96. Count of elements              : 373
  97. Stream size                    : 10.8 KiB (0%)
  98. Title                          : Traditional
  99. Language                       : Chinese (Traditional)
  100. Default                        : No
  101. Forced                         : No
复制代码


购买主题 本主题需向作者支付 15 金币 才能浏览
雨辰760501 发表于 2023-12-6 18:01:04 | 显示全部楼层
感谢楼主每天辛苦发帖分享!
回复

使用道具 举报

dqxa 发表于 2023-12-7 06:26:00 | 显示全部楼层
谢谢楼主分享
回复

使用道具 举报

v3344560 发表于 2023-12-7 07:06:17 | 显示全部楼层
谢谢楼主分享
回复

使用道具 举报

hwm54803 发表于 2023-12-7 12:37:36 | 显示全部楼层
感谢楼主分享
回复

使用道具 举报

顾扣林 发表于 2023-12-7 14:00:45 | 显示全部楼层
谢谢楼主分享
回复

使用道具 举报

yrccihr 发表于 2023-12-8 09:28:28 | 显示全部楼层
谢谢楼主分享
回复

使用道具 举报

yrccihr 发表于 2023-12-8 09:31:03 | 显示全部楼层
谢谢楼主分享
回复

使用道具 举报

您需要登录后才可以回帖 登录 | 立即注册

本版积分规则

QQ|Archiver|手机版|小黑屋|聚音影社区

GMT+8, 2024-3-1 20:24 , Processed in 0.069110 second(s), 17 queries .

Powered by Discuz! X3.5

© 2001-2024 Discuz! Team.

快速回复 返回顶部 返回列表