找回密码
 立即注册
搜索
热搜: 2023 高码

[115云盘]维琴河 第三季[2021][完结剧集][4KHDR][英语][内嵌简繁英字幕][57.77GB]

[复制链接]
lcw_008 发表于 2023-12-6 20:55:48 | 显示全部楼层 |阅读模式


◎译  名 维琴河 第三季(第5集非HDR)
◎片  名 Virgin River Season 3
◎年  代 2021
◎产  地 美国
◎类  别 剧情 / 爱情
◎语  言 英语
◎上映日期 2021-07-09(美国)
◎IMDb评分  7.3/10 from 516 users
◎IMDb链接  https://www.imdb.com/title/tt9077530/
◎豆瓣评分 7.5/10 from 166 users
◎豆瓣链接   https://movie.douban.com/subject/35291785/
◎单集片长 43分钟
◎集  数 10
◎演       员  詹妮 / 库珀 Jenny Cooper
      莎拉·杜格代尔 / Sarah Dugdale
      丹尼尔·吉里斯 / Daniel Gillies
      马克·格拉齐尼 / Marco Grazzini
      本·霍灵斯沃斯 / Ben Hollingsworth
      科林·劳伦斯 / Colin Lawrence
      贾思敏·维嘉 / Jasmine Vega
      杰奎琳·布雷克韦尔 / Jacqueline Breakwell | 饰 Annie
      劳伦·汉默斯利 / Lauren Hammersley
      格雷森·麦克斯韦·根西 / Grayson Maxwell Gurnsey | 饰  Ricky
◎简  介 
  Netflix的《维琴河 Virgin River》获续订第三季,新季为10集。
  1. General
  2. Unique ID                      : 28912562024149999307731069365843774357 (0x15C05B5D9C2DCD5A395AD1F57595CB95)
  3. Complete name                  : 维琴河 第三季.mkv
  4. Format                         : Matroska
  5. Format version                 : Version 4
  6. File size                      : 6.06 GiB
  7. Duration                       : 44 min 39 s
  8. Overall bit rate               : 19.4 Mb/s
  9. Frame rate                     : 23.976 FPS
  10. Writing application            : mkvmerge v73.0.0 ('25 or 6 to 4') 64-bit
  11. Writing library                : libebml v1.4.4 + libmatroska v1.7.1

  12. Video
  13. ID                             : 1
  14. Format                         : HEVC
  15. Format/Info                    : High Efficiency Video Coding
  16. Format profile                 : Main 10@L5@Main
  17. HDR format                     : Dolby Vision, Version 1.0, dvhe.08.06, BL+RPU, HDR10 compatible / SMPTE ST 2086, HDR10 compatible
  18. Codec ID                       : V_MPEGH/ISO/HEVC
  19. Duration                       : 43 min 11 s
  20. Bit rate                       : 19.3 Mb/s
  21. Width                          : 3 840 pixels
  22. Height                         : 2 160 pixels
  23. Display aspect ratio           : 16:9
  24. Frame rate mode                : Constant
  25. Frame rate                     : 23.976 (24000/1001) FPS
  26. Color space                    : YUV
  27. Chroma subsampling             : 4:2:0 (Type 2)
  28. Bit depth                      : 10 bits
  29. Bits/(Pixel*Frame)             : 0.097
  30. Stream size                    : 5.81 GiB (96%)
  31. Default                        : Yes
  32. Forced                         : No
  33. Color range                    : Limited
  34. Color primaries                : BT.2020
  35. Transfer characteristics       : PQ
  36. Matrix coefficients            : BT.2020 non-constant
  37. Mastering display color primar : Display P3
  38. Mastering display luminance    : min: 0.0001 cd/m2, max: 1000 cd/m2
  39. Maximum Content Light Level    : 975 cd/m2
  40. Maximum Frame-Average Light Le : 160 cd/m2

  41. Audio
  42. ID                             : 2
  43. Format                         : E-AC-3 JOC
  44. Format/Info                    : Enhanced AC-3 with Joint Object Coding
  45. Commercial name                : Dolby Digital Plus with Dolby Atmos
  46. Codec ID                       : A_EAC3
  47. Duration                       : 44 min 39 s
  48. Bit rate mode                  : Constant
  49. Bit rate                       : 768 kb/s
  50. Channel(s)                     : 6 channels
  51. Channel layout                 : L R C LFE Ls Rs
  52. Sampling rate                  : 48.0 kHz
  53. Frame rate                     : 31.250 FPS (1536 SPF)
  54. Compression mode               : Lossy
  55. Stream size                    : 245 MiB (4%)
  56. Title                          : English
  57. Language                       : English
  58. Service kind                   : Complete Main
  59. Default                        : Yes
  60. Forced                         : No
  61. Complexity index               : 16
  62. Number of dynamic objects      : 15
  63. Bed channel count              : 1 channel
  64. Bed channel configuration      : LFE

  65. Text #6
  66. ID                             : 8
  67. Format                         : UTF-8
  68. Codec ID                       : S_TEXT/UTF8
  69. Codec ID/Info                  : UTF-8 Plain Text
  70. Duration                       : 42 min 0 s
  71. Bit rate                       : 89 b/s
  72. Frame rate                     : 0.324 FPS
  73. Count of elements              : 816
  74. Stream size                    : 27.6 KiB (0%)
  75. Title                          : English (SDH)
  76. Language                       : English
  77. Default                        : No
  78. Forced                         : No

  79. Text #31
  80. ID                             : 33
  81. Format                         : UTF-8
  82. Codec ID                       : S_TEXT/UTF8
  83. Codec ID/Info                  : UTF-8 Plain Text
  84. Duration                       : 42 min 54 s
  85. Bit rate                       : 75 b/s
  86. Frame rate                     : 0.269 FPS
  87. Count of elements              : 693
  88. Stream size                    : 23.8 KiB (0%)
  89. Title                          : Simplified, Chinese
  90. Language                       : Chinese
  91. Default                        : No
  92. Forced                         : No

  93. Text #32
  94. ID                             : 34
  95. Format                         : UTF-8
  96. Codec ID                       : S_TEXT/UTF8
  97. Codec ID/Info                  : UTF-8 Plain Text
  98. Duration                       : 42 min 53 s
  99. Bit rate                       : 74 b/s
  100. Frame rate                     : 0.270 FPS
  101. Count of elements              : 694
  102. Stream size                    : 23.5 KiB (0%)
  103. Title                          : Traditional, Chinese
  104. Language                       : Chinese
  105. Default                        : No
  106. Forced                         : No
复制代码


购买主题 本主题需向作者支付 30 金币 才能浏览
dqxa 发表于 2023-12-7 04:20:45 | 显示全部楼层
谢谢楼主分享
回复

使用道具 举报

v3344560 发表于 2023-12-7 11:40:26 | 显示全部楼层
谢谢楼主分享
回复

使用道具 举报

hwm54803 发表于 2023-12-7 12:02:13 | 显示全部楼层
感谢楼主分享
回复

使用道具 举报

alittlehero 发表于 2023-12-7 12:22:18 | 显示全部楼层
谢谢楼主分享
回复

使用道具 举报

alittlehero 发表于 2023-12-7 12:24:35 | 显示全部楼层
  1. [size=2][url=forum.php?mod=redirect&goto=findpost&pid=244115&ptid=19469][color=#999999]alittlehero 发表于 2023-12-7 12:22[/color][/url][/size]
  2. 谢谢楼主分享
复制代码

谢谢楼主分享
回复

使用道具 举报

雨辰760501 发表于 2023-12-7 18:46:14 | 显示全部楼层
感谢楼主每天辛苦发帖分享!
回复

使用道具 举报

顾扣林 发表于 2023-12-8 08:28:46 | 显示全部楼层
谢谢楼主分享
回复

使用道具 举报

jay1009 发表于 2023-12-8 11:16:49 | 显示全部楼层
很好很好很好                                                   
回复

使用道具 举报

您需要登录后才可以回帖 登录 | 立即注册

本版积分规则

QQ|Archiver|手机版|小黑屋|聚音影社区

GMT+8, 2024-3-1 19:32 , Processed in 0.070546 second(s), 17 queries .

Powered by Discuz! X3.5

© 2001-2024 Discuz! Team.

快速回复 返回顶部 返回列表